Панель пользователя
Регистрация

Воспользуйтесь социальными сетями для входа на https://freerutor.com

vk odnoklassniki facebook mailru yandex google
Рекомендуем
Document
Счетчик
Товары интернет магазина
Document

Удача Логана (2017) BDRip 720p | iTunes

Удача Логана (2017) BDRip 720p | iTunes
Участники торрент обмена
Сидов Пиров Скачали
38 1 2918
Характеристика
Размер Файлы
5.46 GB
Поделиться раздачей
Фильмы (720,1080,Blu-Ray)
Наименование: Удача Логана
Оригинальное наименование: Logan Lucky
Произведено: США
Категория: комедия, криминал
Режиссер постановщик: Стивен Содерберг
В главных ролях: Дэниэл Крэйг, Ченнинг Татум, Адам Драйвер, Сет МакФарлейн, Себастьян Стэн, Кэти Холмс, Хилари Суэнк, Райли Кио, Фаррах Маккензи, Джим О Хейр
Краткое описание: Уволили с работы? Подготовь самое дерзкое ограбление в истории! Джимми Логан молниеносно подбирает команду «специалистов», способных на такую аферу, и надеется выйти сухим из воды. Будь как Логан!
  • Видео данные: MPEG-4 AVC, 5415 kb/s, 1280x536
    Аудио данные: Russian: AC3, 384 kb/s (6 ch) / English: AC3, 640 kb/s (6 ch)
    Перевод: Дублированный [iTunes]
    Субтитры: Английские
    Продолжительность: 01:59:03
  • Удача Логана (2017) BDRip 720p | iTunes Удача Логана (2017) BDRip 720p | iTunes Удача Логана (2017) BDRip 720p | iTunes
  • Общее
    Уникальный идентификатор : 238478667603163244090653663308334626305 (0xB36952199F0E72CC8F146CB694A5F601)
    Полное имя : D:\Загрузки\Logan.Lucky.2O17.D.BDRip.72Oр.mkv
    Формат : Matroska
    Версия формата : Version 2
    Размер файла : 5,46 Гбайт
    Продолжительность : 1 ч. 59 м.
    Общий поток : 6570 Кбит/сек
    Название фильма : Logan.Lucky.2017.720p.BluRay.DD5.1.x264-playHD
    Дата кодирования : UTC 2017-12-05 15:59:03
    Программа кодирования : mkvmerge v8.3.0 ('Over the Horizon') 64bit
    Библиотека кодирования : libebml v1.3.1 + libmatroska v1.4.2

    Видео
    Идентификатор : 1
    Формат : AVC
    Формат/Информация : Advanced Video Codec
    Профиль формата : High@L4.1
    Настройки формата : CABAC / 12 Ref Frames
    Параметр CABAC формата : Да
    Параметр RefFrames формата : 12 кадров
    Идентификатор кодека : V_MPEG4/ISO/AVC
    Продолжительность : 1 ч. 59 м.
    Битрейт : 5543 Кбит/сек
    Ширина : 1280 пикселей
    Высота : 536 пикселей
    Соотношение сторон : 2,40:1
    Режим частоты кадров : Постоянный
    Частота кадров : 23,976 (24000/1001) кадра/сек
    Цветовое пространство : YUV
    Субдискретизация насыщенности : 4:2:0
    Битовая глубина : 8 бит
    Тип развёртки : Прогрессивная
    Бит/(Пиксели*Кадры) : 0.337
    Размер потока : 4,61 Гбайт (84%)
    Библиотека кодирования : x264 core 148 r2762+56 6284cf3 t_mod_Custom [8-bit@all X86_64]
    Настройки программы : cabac=1 / ref=12 / deblock=1:-3:-3 / analyse=0x3:0x133 / me=umh / subme=10 / psy=1 / fade_compensate=0.00 / psy_rd=1.00:0.00 / mixed_ref=1 / me_range=32 / chroma_me=1 / trellis=2 / 8x8dct=1 / cqm=0 / deadzone=21,11 / fast_pskip=0 / chroma_qp_offset=-2 / threads=6 / lookahead_threads=1 / sliced_threads=0 / nr=0 / decimate=0 / interlaced=0 / bluray_compat=0 / constrained_intra=0 / fgo=0 / bframes=8 / b_pyramid=2 / b_adapt=2 / b_bias=0 / direct=3 / weightb=1 / open_gop=0 / weightp=2 / keyint=250 / keyint_min=23 / scenecut=40 / intra_refresh=0 / rc=crf / mbtree=0 / crf=15.2000 / qcomp=0.60 / qpmin=0:0:0 / qpmax=69:69:69 / qpstep=4 / ip_ratio=1.40 / pb_ratio=1.30 / aq=3:0.80 / aq-sensitivity=10.00 / aq-factor=1.00:1.00:1.00 / aq2=0 / aq3=0
    Язык : English
    Default : Да
    Forced : Нет

    Аудио #1
    Идентификатор : 2
    Формат : AC-3
    Формат/Информация : Audio Coding 3
    Идентификатор кодека : A_AC3
    Продолжительность : 1 ч. 59 м.
    Вид битрейта : Постоянный
    Битрейт : 384 Кбит/сек
    Каналы : 6 каналов
    Расположение каналов : Front: L C R, Side: L R, LFE
    Частота : 48,0 КГц
    Частота кадров : 31,250 кадров/сек (1536 SPF)
    Битовая глубина : 16 бит
    Метод сжатия : С потерями
    Размер потока : 327 Мбайт (6%)
    Язык : Russian
    ServiceKind/String : Complete Main
    Default : Да
    Forced : Нет

    Аудио #2
    Идентификатор : 3
    Формат : AC-3
    Формат/Информация : Audio Coding 3
    Идентификатор кодека : A_AC3
    Продолжительность : 1 ч. 59 м.
    Вид битрейта : Постоянный
    Битрейт : 640 Кбит/сек
    Каналы : 6 каналов
    Расположение каналов : Front: L C R, Side: L R, LFE
    Частота : 48,0 КГц
    Частота кадров : 31,250 кадров/сек (1536 SPF)
    Битовая глубина : 16 бит
    Метод сжатия : С потерями
    Размер потока : 545 Мбайт (10%)
    Язык : English
    ServiceKind/String : Complete Main
    Default : Нет
    Forced : Нет

    Текст #1
    Идентификатор : 4
    Формат : UTF-8
    Идентификатор кодека : S_TEXT/UTF8
    Идентификатор кодека/Информация : UTF-8 Plain Text
    Продолжительность : 1 ч. 57 м.
    Битрейт : 70 бит/сек
    ElementCount : 1747
    Размер потока : 60,6 Кбайт (0%)
    Заголовок : SDH
    Язык : English
    Default : Нет
    Forced : Нет

    Текст #2
    Идентификатор : 5
    Формат : UTF-8
    Идентификатор кодека : S_TEXT/UTF8
    Идентификатор кодека/Информация : UTF-8 Plain Text
    Продолжительность : 1 ч. 53 м.
    Битрейт : 67 бит/сек
    ElementCount : 1650
    Размер потока : 56,5 Кбайт (0%)
    Язык : English
    Default : Нет
    Forced : Нет

    Меню
    00:00:00.000 : en:00:00:00.000
    00:05:41.800 : en:00:05:41.800
    00:07:33.203 : en:00:07:33.203
    00:10:40.932 : en:00:10:40.932
    00:16:24.025 : en:00:16:24.025
    00:21:23.282 : en:00:21:23.282
    00:29:08.747 : en:00:29:08.747
    00:36:03.703 : en:00:36:03.703
    00:41:49.424 : en:00:41:49.424
    00:47:11.078 : en:00:47:11.078
    00:50:08.881 : en:00:50:08.881
    00:54:40.527 : en:00:54:40.527
    00:57:27.152 : en:00:57:27.152
    00:59:16.470 : en:00:59:16.470
    01:04:37.290 : en:01:04:37.290
    01:07:27.877 : en:01:07:27.877
    01:12:12.995 : en:01:12:12.995
    01:17:50.249 : en:01:17:50.249
    01:19:20.422 : en:01:19:20.422
    01:24:02.913 : en:01:24:02.913
    01:28:33.099 : en:01:28:33.099
    01:32:41.514 : en:01:32:41.514
    01:42:27.433 : en:01:42:27.433
    01:46:07.653 : en:01:46:07.653
    01:50:50.936 : en:01:50:50.936
    01:54:55.263 : en:01:54:55.263

10.0 из 10
голосов: 2
CinemaRelizer 5-12-2017, 22:00

karta | 5-12-2017, 22:01 | Статус: Онлайн


swatt44 | 20-11-2017, 07:55 | Статус: Оффлайн

а можно нормальную ссылку

Men38 | 19-11-2017, 17:42 | Статус: Оффлайн

magnet:?xt=urn:btih:98E3898799551CF979E4CB73F3276C4F7867FB70&xl=5432597417&dn=L
ogan.lucky.2017.D.BDRip.72Op_KOSHARA.mkv.torrent&tr=http%3A%2F%2Fxbtrutor.com%3
A2710%2Fannounce
Информация
Посетители, находящиеся в группе Гости, не могут оставлять комментарии к данной публикации.