Панель пользователя
Регистрация

Воспользуйтесь социальными сетями для входа на https://freerutor.com

vk odnoklassniki facebook mailru yandex google
Рекомендуем
Document
Счетчик
Товары интернет магазина
Document

Ветреная река (2017) BDRip 1080p | iTunes

Ветреная река (2017) BDRip 1080p | iTunes
Участники торрент обмена
Сидов Пиров Скачали
32 1 914
Характеристика
Размер Файлы
11.84 GB
Релиз группа
Поделиться раздачей
Фильмы (720,1080,Blu-Ray)
Наименование: Ветреная река
Оригинальное наименование: Wind River
Категория: Боевик, триллер, криминал, детектив
Произведено: Acacia Filmed Entertainment, Film 44, Ingenious Media, Savvy Media Holdings, Star Thrower Entertainment
Режиссер: Тейлор Шеридан
В главных ролях: Джереми Реннер, Элизабет Олсен, Джон Бернтал, Келси Чоу, Джулия Джонс, Тео Брионес, Апесанахкват, Грэм Грин, Танту Кардинал, Эрик Ланж, Джил Бирмингем
Краткое описание: Край, где водятся волки и пумы, а морозные ослепительно-солнечные дни сменяются метелью, где индейцы живут в резервации «Ветреная река», охотник, идущий по следу пумы на снегоходе, натыкается на труп девушки. В край, где нет подкрепления - каждый сам за себя, приезжает молодая сотрудница ФБР и просит охотника помочь найти убийцу. Сюжет фильма основан на реальных событиях.
  • Видео данные: MPEG-4 AVC, 1920x804, 14.0 Mbit/s, 23.976 fps
    Аудио данные: Русский (AC3, 6 ch, 384 Кбит/с), английский (DTS, 6 ch, 1510 Кбит/с)
    Перевод: Дублированный | iTunes
    Субтитры: Русские, английские
    Продолжительность: 01:46:57
  • Ветреная река (2017) BDRip 1080p | iTunes Ветреная река (2017) BDRip 1080p | iTunes Ветреная река (2017) BDRip 1080p | iTunes
  • General
    Unique ID : 184041713929581183476826656045602456100 (0x8A752510C85C0CA48D6CCBA31CE04224)
    Complete name : G:VideoSSDWind.River.2017.BDRip.1080p.ExKinoRay.mkv
    Format : Matroska
    Format version : Version 4 / Version 2
    File size : 11.8 GiB
    Duration : 1 h 46 min
    Overall bit rate : 15.9 Mb/s
    Encoded date : UTC 2017-11-04 17:10:12
    Writing application : mkvmerge v17.0.0 ('Be Ur Friend') 64-bit
    Writing library : libebml v1.3.5 + libmatroska v1.4.8

    Video
    ID : 1
    Format : AVC
    Format/Info : Advanced Video Codec
    Format profile : High@L4.1
    Format settings : CABAC / 5 Ref Frames
    Format settings, CABAC : Yes
    Format settings, RefFrames : 5 frames
    Codec ID : V_MPEG4/ISO/AVC
    Duration : 1 h 46 min
    Bit rate : 14.0 Mb/s
    Width : 1 920 pixels
    Height : 804 pixels
    Display aspect ratio : 2.40:1
    Frame rate mode : Constant
    Frame rate : 23.976 (24000/1001) FPS
    Color space : YUV
    Chroma subsampling : 4:2:0
    Bit depth : 8 bits
    Scan type : Progressive
    Bits/(Pixel*Frame) : 0.378
    Stream size : 10.4 GiB (88%)
    Writing library : x264 core 148 r2665kMod a01e339
    Encoding settings : cabac=1 / ref=5 / deblock=1:-3:-3 / analyse=0x3:0x133 / me=umh / subme=11 / psy=1 / fade_compensate=0.00 / psy_rd=1.05:0.00 / mixed_ref=1 / me_range=48 / chroma_me=1 / trellis=2 / 8x8dct=1 / cqm=0 / deadzone=21,11 / fast_pskip=0 / chroma_qp_offset=-2 / threads=24 / lookahead_threads=4 / sliced_threads=0 / nr=0 / decimate=0 / interlaced=0 / bluray_compat=0 / constrained_intra=0 / fgo=0 / bframes=8 / b_pyramid=2 / b_adapt=2 / b_bias=0 / direct=3 / weightb=1 / open_gop=0 / weightp=2 / keyint=240 / keyint_min=24 / scenecut=40 / intra_refresh=0 / rc=2pass / mbtree=0 / bitrate=14000 / ratetol=1.0 / qcomp=0.70 / qpmin=0 / qpmax=69 / qpstep=4 / cplxblur=20.0 / qblur=0.5 / ip_ratio=1.20 / pb_ratio=1.20 / aq=3:0.80
    Language : English
    Default : Yes
    Forced : No

    Audio #1
    ID : 2
    Format : AC-3
    Format/Info : Audio Coding 3
    Format settings, Endianness : Big
    Codec ID : A_AC3
    Duration : 1 h 46 min
    Bit rate mode : Constant
    Bit rate : 384 kb/s
    Channel(s) : 6 channels
    Channel positions : Front: L C R, Side: L R, LFE
    Sampling rate : 48.0 kHz
    Frame rate : 31.250 FPS (1536 SPF)
    Bit depth : 16 bits
    Compression mode : Lossy
    Stream size : 293 MiB (2%)
    Title : Dub
    Language : Russian
    Service kind : Complete Main
    Default : Yes
    Forced : No

    Audio #2
    ID : 3
    Format : DTS
    Format/Info : Digital Theater Systems
    Mode : 16
    Format settings, Endianness : Big
    Codec ID : A_DTS
    Duration : 1 h 46 min
    Bit rate mode : Constant
    Bit rate : 1 509 kb/s
    Channel(s) : 6 channels
    Channel positions : Front: L C R, Side: L R, LFE
    Sampling rate : 48.0 kHz
    Frame rate : 93.750 FPS (512 SPF)
    Bit depth : 24 bits
    Compression mode : Lossy
    Stream size : 1.13 GiB (10%)
    Title : Original
    Language : English
    Default : No
    Forced : No

    Text #1
    ID : 4
    Format : UTF-8
    Codec ID : S_TEXT/UTF8
    Codec ID/Info : UTF-8 Plain Text
    Duration : 1 h 43 min
    Bit rate : 89 b/s
    Count of elements : 1251
    Stream size : 67.4 KiB (0%)
    Title : Full
    Language : Russian
    Default : No
    Forced : No

    Text #2
    ID : 5
    Format : UTF-8
    Codec ID : S_TEXT/UTF8
    Codec ID/Info : UTF-8 Plain Text
    Duration : 1 h 43 min
    Bit rate : 52 b/s
    Count of elements : 1244
    Stream size : 39.9 KiB (0%)
    Title : Full
    Language : English
    Default : No
    Forced : No

    Menu
    00:00:00.000 : en:00:00:00.000
    00:06:01.695 : en:00:06:01.695
    00:10:42.433 : en:00:10:42.433
    00:14:55.394 : en:00:14:55.394
    00:19:18.741 : en:00:19:18.741
    00:25:52.342 : en:00:25:52.342
    00:32:02.921 : en:00:32:02.921
    00:37:13.481 : en:00:37:13.481
    00:43:34.529 : en:00:43:34.529
    00:52:17.259 : en:00:52:17.259
    01:00:22.536 : en:01:00:22.536
    01:07:09.484 : en:01:07:09.484
    01:10:57.920 : en:01:10:57.920
    01:18:39.590 : en:01:18:39.590
    01:23:46.104 : en:01:23:46.104
    01:31:00.538 : en:01:31:00.538
    01:36:46.592 : en:01:36:46.592
    01:39:41.642 : en:01:39:41.642
9.7 из 10
голосов: 16
Похожие торренты Размер
  Ветреная река (2017) BDRip 720p | iTunes 6.25 GB
Раздачу отредактировал: 616759 - 4-11-2017, 21:55
По причине: (Битрейт видео 14.0 Mbit/s)
616759 4-11-2017, 21:49
Информация
Посетители, находящиеся в группе Гости, не могут оставлять комментарии к данной публикации.