Панель пользователя
Регистрация

Воспользуйтесь социальными сетями для входа на https://freerutor.com

vk odnoklassniki facebook mailru yandex google
Рекомендуем
Document
Счетчик
Пожертвование
Голосуй за нас
Товары интернет магазина
Document

Это всего лишь конец света (2016) BDRip-AVC | Лицензия | R.G.Resident

Это всего лишь конец света (2016) BDRip-AVC | Лицензия | R.G.Resident
Участники торрент обмена
Сидов Пиров Скачали
4 1 75
Характеристика
Размер Файлы
2.59 GB
Релиз группа
Поделиться раздачей
Фильмы (AVC)
Наименование: Это всего лишь конец света
Оригинальное наименование: Juste la fin du monde
Категория: драма
Произведено: Канада, Франция
Режиссер постановщик: Ксавье Долан
В главных ролях: Натали Бай , Венсан Кассель , Марион Котийяр , Леа Сейду , Гаспар Ульель , Антуан Дерошер , Уилльям Бойс Бланшетт , Саша Самар , Артур Куийяр , Эмиль Рондо , Теодор Пеллерен , Женьян Провеншер
Краткое описание: Успешный писатель Луи после 12 лет разлуки возвращается в родной дом, чтобы сообщить семье новость о своей болезни. Однако, воплотить этот план в жизнь непросто, ведь у эксцентричной родни собственные планы.
  • Видео данные: MPEG-4 AVC, 2867 Кбит/с, 1024x576
    Аудио данные: Русский (AC3, 6 ch, 448 Кбит/с), французский (АС3, 6 ch, 448 Кбит/с)
    Перевод: Дублированный (Лицензия)
    Продолжительность: 01:38:49
    Субтитры: русские (Full)
  • Это всего лишь конец света (2016) BDRip-AVC | Лицензия | R.G.Resident Это всего лишь конец света (2016) BDRip-AVC | Лицензия | R.G.Resident Это всего лишь конец света (2016) BDRip-AVC | Лицензия | R.G.Resident
  • General
    Unique ID : 234808894907121951688821364986727314881 (0xB0A68C563EFCA2E795B86850FAF335C1)
    Complete name : D:\download\Juste la fin du monde.2016.BDRip-AVC by schultz R.G.Resident.mkv
    Format : Matroska
    Format version : Version 4 / Version 2
    File size : 2.59 GiB
    Duration : 1 h 38 min
    Overall bit rate : 3 749 kb/s
    Encoded date : UTC 2017-07-16 11:29:02
    Writing application : mkvmerge v8.9.0 ('Father Daughter') 64bit
    Writing library : libebml v1.3.3 + libmatroska v1.4.4

    Video
    ID : 1
    Format : AVC
    Format/Info : Advanced Video Codec
    Format profile : High@L4.1
    Format settings, CABAC : Yes
    Format settings, ReFrames : 11 frames
    Codec ID : V_MPEG4/ISO/AVC
    Duration : 1 h 38 min
    Bit rate : 2 867 kb/s
    Width : 1 024 pixels
    Height : 576 pixels
    Display aspect ratio : 16:9
    Frame rate mode : Constant
    Frame rate : 24.000 FPS
    Color space : YUV
    Chroma subsampling : 4:2:0
    Bit depth : 8 bits
    Scan type : Progressive
    Bits/(Pixel*Frame) : 0.203
    Stream size : 1.97 GiB (76%)
    Writing library : x264 core 146 r2538 121396c
    Encoding settings : cabac=1 / ref=11 / deblock=1:-3:-3 / analyse=0x3:0x113 / me=umh / subme=11 / psy=1 / psy_rd=1.00:0.15 / mixed_ref=1 / me_range=48 / chroma_me=1 / trellis=2 / 8x8dct=1 / cqm=0 / deadzone=21,11 / fast_pskip=0 / chroma_qp_offset=-3 / threads=12 / lookahead_threads=3 / sliced_threads=0 / nr=0 / decimate=0 / interlaced=0 / bluray_compat=0 / constrained_intra=0 / bframes=11 / b_pyramid=2 / b_adapt=2 / b_bias=0 / direct=3 / weightb=1 / open_gop=0 / weightp=2 / keyint=240 / keyint_min=24 / scenecut=40 / intra_refresh=0 / rc_lookahead=40 / rc=2pass / mbtree=0 / bitrate=2867 / ratetol=1.0 / qcomp=0.60 / qpmin=0 / qpmax=69 / qpstep=4 / cplxblur=20.0 / qblur=0.5 / vbv_maxrate=50000 / vbv_bufsize=62500 / nal_hrd=none / filler=0 / ip_ratio=1.40 / pb_ratio=1.30 / aq=1:1.00
    Language : English
    Default : Yes
    Forced : No
    Color range : Limited
    Color primaries : BT.709
    Transfer characteristics : BT.709
    Matrix coefficients : BT.709

    Audio #1
    ID : 2
    Format : AC-3
    Format/Info : Audio Coding 3
    Mode extension : CM (complete main)
    Format settings, Endianness : Big
    Codec ID : A_AC3
    Duration : 1 h 38 min
    Bit rate mode : Constant
    Bit rate : 448 kb/s
    Channel(s) : 6 channels
    Channel positions : Front: L C R, Side: L R, LFE
    Sampling rate : 48.0 kHz
    Frame rate : 31.250 FPS (1536 spf)
    Compression mode : Lossy
    Stream size : 317 MiB (12%)
    Language : Russian
    Default : Yes
    Forced : No

    Audio #2
    ID : 3
    Format : AC-3
    Format/Info : Audio Coding 3
    Mode extension : CM (complete main)
    Format settings, Endianness : Big
    Codec ID : A_AC3
    Duration : 1 h 38 min
    Bit rate mode : Constant
    Bit rate : 448 kb/s
    Channel(s) : 6 channels
    Channel positions : Front: L C R, Side: L R, LFE
    Sampling rate : 48.0 kHz
    Frame rate : 31.250 FPS (1536 spf)
    Compression mode : Lossy
    Stream size : 317 MiB (12%)
    Language : French
    Default : No
    Forced : No

    Text
    ID : 4
    Format : UTF-8
    Codec ID : S_TEXT/UTF8
    Codec ID/Info : UTF-8 Plain Text
    Duration : 1 h 32 min
    Bit rate : 119 b/s
    Count of elements : 1374
    Stream size : 81.1 KiB (0%)
    Title : full
    Language : Russian
    Default : No
    Forced : No

    Menu
    00:00:00.000 : en:00:00:00.000
    00:03:49.167 : en:00:03:49.167
    00:18:50.250 : en:00:18:50.250
    00:25:41.875 : en:00:25:41.875
    00:36:57.667 : en:00:36:57.667
    00:49:13.833 : en:00:49:13.833
    01:00:50.833 : en:01:00:50.833
    01:14:47.542 : en:01:14:47.542
    01:22:51.042 : en:01:22:51.042
8.3 из 10
голосов: 4
schultz 16-07-2017, 14:54
Информация
Посетители, находящиеся в группе Гости, не могут оставлять комментарии к данной публикации.