Панель пользователя
Регистрация

Воспользуйтесь социальными сетями для входа на https://freerutor.com

vk odnoklassniki facebook mailru yandex google
Рекомендуем
Document
Счетчик
Пожертвование
Голосуй за нас
Товары интернет магазина
Document

Это всего лишь конец света (2016) BDRip 720p | Лицензия

Это всего лишь конец света (2016) BDRip 720p | Лицензия
Участники торрент обмена
Сидов Пиров Скачали
5 3 247
Характеристика
Размер Файлы
6.91 GB
Поделиться раздачей
Фильмы (720,1080,Blu-Ray)
Наименование: Это всего лишь конец света
Оригинальное наименование: Juste la fin du monde
Категория: драма
Произведено: Канада, Франция
Режиссер постановщик: Ксавье Долан
В главных ролях: Натали Бай, Венсан Кассель, Марион Котийяр, Леа Сейду, Гаспар Ульель, Антуан Дерошер, Уилльям Бойс Бланшетт, Саша Самар, Артур Куийяр, Эмиль Рондо
Краткое описание: Успешный писатель Луи после 12 лет разлуки возвращается в родной дом, чтобы сообщить семье новость о своей болезни. Однако, воплотить этот план в жизнь не просто, ведь у эксцентричной родни собственные планы.
  • Видео данные: MPEG-4 AVC, 8926 kb/s, 1280x690
    Аудио данные: Russian: AC3, 448 kb/s (6 ch) / French: AC3, 640 kb/s (6 ch)
    Перевод: Дублированный (лицензия)
    Субтитры: Русские, английские, французские
    Продолжительность: 01:38:48
  • Это всего лишь конец света (2016) BDRip 720p | Лицензия Это всего лишь конец света (2016) BDRip 720p | Лицензия Это всего лишь конец света (2016) BDRip 720p | Лицензия
  • Общее
    Уникальный идентификатор : 198620045808339376974885756896102976785 (0x956CD4521A3C952999BAA507CA0A0D11)
    Полное имя : D:\Загрузки\Eto.VseGo.Konec.Sveta.2016.D.BDRip.72Op.mkv
    Формат : Matroska
    Версия формата : Version 2
    Размер файла : 6,91 Гбайт
    Продолжительность : 1 ч. 38 м.
    Общий поток : 10,0 Мбит/сек
    Дата кодирования : UTC 2017-07-15 12:55:09
    Программа кодирования : mkvmerge v7.8.0 ('River Man') 32bit built on Apr 3 2015 12:11:22
    Библиотека кодирования : libebml v1.3.1 + libmatroska v1.4.2

    Видео
    Идентификатор : 1
    Формат : AVC
    Формат/Информация : Advanced Video Codec
    Профиль формата : High@L4.1
    Параметр CABAC формата : Да
    Параметр ReFrames формата : 9 кадров
    Идентификатор кодека : V_MPEG4/ISO/AVC
    Продолжительность : 1 ч. 38 м.
    Битрейт : 8725 Кбит/сек
    Ширина : 1280 пикселей
    Высота : 690 пикселей
    Соотношение сторон : 1,85:1
    Режим частоты кадров : Постоянный
    Частота кадров : 23,976 кадра/сек
    Цветовое пространство : YUV
    Субдискретизация насыщенности : 4:2:0
    Битовая глубина : 8 бит
    Тип развёртки : Прогрессивная
    Бит/(Пиксели*Кадры) : 0.412
    Размер потока : 6,02 Гбайт (87%)
    Библиотека кодирования : x264 core 148 r2744 b97ae06
    Настройки программы : cabac=1 / ref=9 / deblock=1:-3:-3 / analyse=0x3:0x133 / me=umh / subme=11 / psy=1 / psy_rd=1.00:0.00 / mixed_ref=1 / me_range=32 / chroma_me=1 / trellis=2 / 8x8dct=1 / cqm=0 / deadzone=21,11 / fast_pskip=0 / chroma_qp_offset=-2 / threads=12 / lookahead_threads=3 / sliced_threads=0 / nr=0 / decimate=0 / interlaced=0 / bluray_compat=0 / constrained_intra=0 / bframes=11 / b_pyramid=2 / b_adapt=2 / b_bias=0 / direct=1 / weightb=1 / open_gop=0 / weightp=2 / keyint=250 / keyint_min=23 / scenecut=40 / intra_refresh=0 / rc=crf / mbtree=0 / crf=16.0 / qcomp=0.60 / qpmin=0 / qpmax=69 / qpstep=4 / ip_ratio=1.40 / pb_ratio=1.30 / aq=1:0.80
    Язык : English
    Default : Да
    Forced : Нет

    Аудио #1
    Идентификатор : 2
    Формат : AC-3
    Формат/Информация : Audio Coding 3
    Параметр Endianness формата : Big
    Идентификатор кодека : A_AC3
    Продолжительность : 1 ч. 38 м.
    Вид битрейта : Постоянный
    Битрейт : 448 Кбит/сек
    Каналы : 6 каналов
    Расположение каналов : Front: L C R, Side: L R, LFE
    Частота : 48,0 КГц
    Частота кадров : 31,250 кадров/сек (1536 spf)
    Битовая глубина : 16 бит
    Метод сжатия : С потерями
    Размер потока : 317 Мбайт (4%)
    Язык : Russian
    ServiceKind/String : Complete Main
    Default : Да
    Forced : Нет

    Аудио #2
    Идентификатор : 3
    Формат : AC-3
    Формат/Информация : Audio Coding 3
    Параметр Endianness формата : Big
    Идентификатор кодека : A_AC3
    Продолжительность : 1 ч. 38 м.
    Вид битрейта : Постоянный
    Битрейт : 640 Кбит/сек
    Каналы : 6 каналов
    Расположение каналов : Front: L C R, Side: L R, LFE
    Частота : 48,0 КГц
    Частота кадров : 31,250 кадров/сек (1536 spf)
    Битовая глубина : 16 бит
    Метод сжатия : С потерями
    Размер потока : 452 Мбайт (6%)
    Заголовок : Original
    Язык : French
    ServiceKind/String : Complete Main
    Default : Нет
    Forced : Нет

    Текст #1
    Идентификатор : 4
    Формат : UTF-8
    Идентификатор кодека : S_TEXT/UTF8
    Идентификатор кодека/Информация : UTF-8 Plain Text
    Заголовок : full
    Язык : Russian
    Default : Нет
    Forced : Нет

    Текст #2
    Идентификатор : 5
    Формат : UTF-8
    Идентификатор кодека : S_TEXT/UTF8
    Идентификатор кодека/Информация : UTF-8 Plain Text
    Заголовок : full
    Язык : English
    Default : Нет
    Forced : Нет

    Текст #3
    Идентификатор : 6
    Формат : UTF-8
    Идентификатор кодека : S_TEXT/UTF8
    Идентификатор кодека/Информация : UTF-8 Plain Text
    Заголовок : full
    Язык : French
    Default : Нет
    Forced : Нет

    Меню
    00:00:00.000 : :Chapter 01
    00:05:23.406 : :Chapter 02
    00:09:50.256 : :Chapter 03
    00:18:38.867 : :Chapter 04
    00:27:23.308 : :Chapter 05
    00:34:02.373 : :Chapter 06
    00:36:53.628 : :Chapter 07
    00:42:29.129 : :Chapter 08
    00:54:03.281 : :Chapter 09
    01:00:43.681 : :Chapter 10
    01:07:22.371 : :Chapter 11
    01:16:31.295 : :Chapter 12
    01:19:39.274 : :Chapter 13
    01:25:13.775 : :Chapter 14
    01:31:03.332 : :Chapter 15
    01:32:58.781 : :Chapter 16

10.0 из 10
голосов: 3
karta 15-07-2017, 16:01
Информация
Посетители, находящиеся в группе Гости, не могут оставлять комментарии к данной публикации.