Панель пользователя
Регистрация

Воспользуйтесь социальными сетями для входа на https://freerutor.com

vk odnoklassniki facebook mailru yandex google
Рекомендуем
Document
Счетчик
Товары интернет магазина
Document

Эксперимент «Офис» (2016) BDRip 1080p

Эксперимент «Офис» (2016) BDRip 1080p
Участники торрент обмена
Сидов Пиров Скачали
2 0 402
Характеристика
Размер Файлы
9.19 GB
Поделиться раздачей
Фильмы (720,1080,Blu-Ray)
Наименование: Эксперимент «Офис»
Оригинальное наименование: The Belko Experiment
Произведено: США, Колумбия
Категория: ужасы, боевик, триллер
Режиссер постановщик: Грег МакЛин
В главных ролях: Джон Галлахер мл., Тони Голдуин, Адриа Архона, Джон К. МакГинли, Мелони Диас, Овайн Йомэн, Шон Ганн, Брент Секстон, Джош Бренер, Давид Дастмалчян
Краткое описание: 80 сотрудников международной корпорации заблокированы в многоэтажном офисном здании. По внутренней связи компании неизвестный голос призывает их участвовать в смертельной игре на выживание. Они должны будут выполнить ряд изощренных заданий, первое из которых - убить коллег, вызывающих наибольшее раздражение. Иначе устроители эксперимента пустят в расход всех. Игра началась!
  • Видео: MPEG-4 AVC, 14 Mb/s, 1920x800
    Аудио: Русский (AC3, 2 ch, 192 Кбит/с), английский (AC3, 6 ch, 640 Кбит/с)
    Перевод: Дублированный [IVI]
    Субтитры: Русские, английские
    Продолжительность: 01:28:45

    Без рекламы
  • Эксперимент «Офис» (2016) BDRip 1080p Эксперимент «Офис» (2016) BDRip 1080p Эксперимент «Офис» (2016) BDRip 1080p
  • Общее
    Уникальный идентификатор : 235887852764216847009138173413937149082 (0xB1765910FEDB4B40975823309504749A)
    Полное имя : E:\Загрузки 2\The.Belko.Experiment.2016.D.BDRip 1080p.mkv
    Формат : Matroska
    Версия формата : Version 2
    Размер файла : 9,19 Гбайт
    Продолжительность : 1 ч. 28 м.
    Общий поток : 14,8 Мбит/сек
    Дата кодирования : UTC 2017-09-20 16:15:53
    Программа кодирования : mkvmerge v7.8.0 ('River Man') 32bit built on Apr 3 2015 12:11:22
    Библиотека кодирования : libebml v1.3.1 + libmatroska v1.4.2

    Видео
    Идентификатор : 1
    Формат : AVC
    Формат/Информация : Advanced Video Codec
    Профиль формата : High@L4.1
    Параметр CABAC формата : Да
    Параметр ReFrames формата : 5 кадров
    Идентификатор кодека : V_MPEG4/ISO/AVC
    Продолжительность : 1 ч. 28 м.
    Битрейт : 14,0 Мбит/сек
    Ширина : 1920 пикселей
    Высота : 800 пикселей
    Соотношение сторон : 2,40:1
    Режим частоты кадров : Постоянный
    Частота кадров : 23,976 (24000/1001) кадра/сек
    Цветовое пространство : YUV
    Субдискретизация насыщенности : 4:2:0
    Битовая глубина : 8 бит
    Тип развёртки : Прогрессивная
    Бит/(Пиксели*Кадры) : 0.380
    Размер потока : 8,50 Гбайт (92%)
    Библиотека кодирования : x264 core 124 r2197+666+28 3970b70 tMod+MixAQ [8-bit@4:2:0 X86]
    Настройки программы : cabac=1 / ref=5 / deblock=1:-3:-3 / analyse=0x3:0x133 / me=umh / subme=11 / psy=1 / fade_compensate=0.00 / psy_rd=1.05:0.10 / mixed_ref=1 / me_range=64 / chroma_me=1 / trellis=2 / 8x8dct=1 / cqm=0 / deadzone=21,11 / fast_pskip=0 / chroma_qp_offset=-3 / threads=12 / sliced_threads=0 / nr=0 / decimate=1 / interlaced=0 / bluray_compat=0 / constrained_intra=0 / fgo=0 / bframes=8 / b_pyramid=2 / b_adapt=2 / b_bias=0 / direct=3 / weightb=1 / open_gop=0 / weightp=2 / keyint=250 / keyint_min=23 / scenecut=40 / intra_refresh=0 / rc=2pass / mbtree=0 / bitrate=14000 / ratetol=1.0 / qcomp=0.75 / qpmin=0 / qpmax=69 / qpstep=4 / cplxblur=20.0 / qblur=0.5 / ip_ratio=1.40 / pb_ratio=1.30 / aq=1 / aq-strength=0.80 / aq-sensitivity=10.00 / aq-ifactor=1.00 / aq-pfactor=1.00 / aq-bfactor=1.00 / aq2=0
    Язык : English
    Default : Да
    Forced : Нет

    Аудио #1
    Идентификатор : 2
    Формат : AC-3
    Формат/Информация : Audio Coding 3
    Параметр Endianness формата : Big
    Идентификатор кодека : A_AC3
    Продолжительность : 1 ч. 28 м.
    Вид битрейта : Постоянный
    Битрейт : 192 Кбит/сек
    Каналы : 2 канала
    Расположение каналов : Front: L R
    Частота : 48,0 КГц
    Частота кадров : 31,250 кадров/сек (1536 spf)
    Битовая глубина : 16 бит
    Метод сжатия : С потерями
    Размер потока : 122 Мбайт (1%)
    Язык : Russian
    ServiceKind/String : Complete Main
    Default : Да
    Forced : Нет

    Аудио #2
    Идентификатор : 3
    Формат : AC-3
    Формат/Информация : Audio Coding 3
    Параметр Endianness формата : Big
    Идентификатор кодека : A_AC3
    Продолжительность : 1 ч. 28 м.
    Вид битрейта : Постоянный
    Битрейт : 640 Кбит/сек
    Каналы : 6 каналов
    Расположение каналов : Front: L C R, Side: L R, LFE
    Частота : 48,0 КГц
    Частота кадров : 31,250 кадров/сек (1536 spf)
    Битовая глубина : 16 бит
    Метод сжатия : С потерями
    Размер потока : 406 Мбайт (4%)
    Язык : English
    ServiceKind/String : Complete Main
    Default : Нет
    Forced : Нет

    Текст #1
    Идентификатор : 4
    Формат : UTF-8
    Идентификатор кодека : S_TEXT/UTF8
    Идентификатор кодека/Информация : UTF-8 Plain Text
    Заголовок : Full
    Язык : Russian
    Default : Нет
    Forced : Нет

    Текст #2
    Идентификатор : 5
    Формат : UTF-8
    Идентификатор кодека : S_TEXT/UTF8
    Идентификатор кодека/Информация : UTF-8 Plain Text
    Заголовок : Full
    Язык : English
    Default : Нет
    Forced : Нет

    Текст #3
    Идентификатор : 6
    Формат : UTF-8
    Идентификатор кодека : S_TEXT/UTF8
    Идентификатор кодека/Информация : UTF-8 Plain Text
    Заголовок : SDH
    Язык : English
    Default : Нет
    Forced : Нет

    Текст #4
    Идентификатор : 7
    Формат : UTF-8
    Идентификатор кодека : S_TEXT/UTF8
    Идентификатор кодека/Информация : UTF-8 Plain Text
    Заголовок : SDH Colored
    Язык : English
    Default : Нет
    Forced : Нет

    Меню
    00:00:00.000 : en:00:00:00.000
    00:02:39.993 : en:00:02:39.993
    00:05:18.944 : en:00:05:18.944
    00:09:21.019 : en:00:09:21.019
    00:11:17.886 : en:00:11:17.886
    00:14:06.095 : en:00:14:06.095
    00:16:29.906 : en:00:16:29.906
    00:19:13.736 : en:00:19:13.736
    00:22:43.529 : en:00:22:43.529
    00:24:48.320 : en:00:24:48.320
    00:28:11.565 : en:00:28:11.565
    00:30:31.997 : en:00:30:31.997
    00:33:47.442 : en:00:33:47.442
    00:37:12.313 : en:00:37:12.313
    00:41:57.056 : en:00:41:57.056
    00:44:22.118 : en:00:44:22.118
    00:47:42.026 : en:00:47:42.026
    00:50:24.230 : en:00:50:24.230
    00:53:04.723 : en:00:53:04.723
    00:56:46.445 : en:00:56:46.445
    01:00:59.239 : en:01:00:59.239
    01:03:07.075 : en:01:03:07.075
    01:04:40.794 : en:01:04:40.794
    01:08:04.664 : en:01:08:04.664
    01:10:40.945 : en:01:10:40.945
    01:15:19.557 : en:01:15:19.557
    01:19:18.420 : en:01:19:18.420
    01:24:33.652 : en:01:24:33.652
4.9 из 10
голосов: 7
CinemaRelizer 20-09-2017, 19:32
Информация
Посетители, находящиеся в группе Гости, не могут оставлять комментарии к данной публикации.