Панель пользователя
Регистрация

Воспользуйтесь социальными сетями для входа на https://freerutor.com

vk odnoklassniki facebook mailru yandex google
Рекомендуем
Document
Счетчик
Голосуй за нас
Популярное
загрузка...
Товары интернет магазина
Document

Охотник с Уолл-стрит (2016) WEB-DLRip-AVC от R.G.Resident | iTunes

Охотник с Уолл-стрит (2016) WEB-DLRip-AVC от R.G.Resident | iTunes
Участники торрент обмена
Сидов Пиров Скачали
9 1 172
Характеристика
Размер Файлы
1.38 GB
Релиз группа
Поделиться раздачей
Фильмы (AVC)
Наименование: Охотник с Уолл-стрит
Оригинальное наименование: The Headhunter's Calling
Произведено: США, Канада
Категория: драма
Режиссер постановщик: Марк Уильямс
В главных ролях: Элисон Бри, Джерард Батлер, Уиллем Дефо, Гретхен Мол, Дастин Миллиган, Альфред Молина, Кэтлин Манро, Джулия Баттерз, Анупам Кхер, Синди Дэй
Краткое описание: Циничный и обаятельный хедхантер с Уолл-стрит Дэйн Дженсен близок к осуществлению своей американской мечты и покорению бизнес-олимпа. Но его карьерные интересы внезапно входят в противоречие с жизнью его семьи. Перед Дэйном встает непростой вопрос выбора.
  • Видео данные: MPEG-4 AVC, 1400 Кбит/с, 1024x426
    Аудио данные: Русский (AC3, 6 ch, 384 Кбит/с)
    Перевод: Дублированный (iTunes)
    Продолжительность: 01:50:15
  • Охотник с Уолл-стрит (2016) WEB-DLRip-AVC от R.G.Resident | iTunes Охотник с Уолл-стрит (2016) WEB-DLRip-AVC от R.G.Resident | iTunes Охотник с Уолл-стрит (2016) WEB-DLRip-AVC от R.G.Resident | iTunes
  • General
    Unique ID : 238745904080770211924801375302583980443 (0xB39CC9E02CE9E4BFB4812310EF1A119B)
    Complete name : E:The.Headhunter's.Calling.2O16.WEB-DLRip-AVC.by.White Smoke.R.G.Resident.mkv
    Format : Matroska
    Format version : Version 4 / Version 2
    File size : 1.38 GiB
    Duration : 1 h 50 min
    Overall bit rate : 1 785 kb/s
    Movie name : The.Headhunter's.Calling.2O16.WEB-DLRip-AVC.by.White Smoke.R.G.Resident.mkv
    Encoded date : UTC 2017-06-17 08:28:53
    Writing application : mkvmerge v6.8.0 ('Theme for Great Cities') 64bit built on Mar 2 2014 21:34:26
    Writing library : libebml v1.3.0 + libmatroska v1.4.1

    Video
    ID : 1
    Format : AVC
    Format/Info : Advanced Video Codec
    Format profile : High@L4.1
    Format settings, CABAC : Yes
    Format settings, ReFrames : 12 frames
    Codec ID : V_MPEG4/ISO/AVC
    Duration : 1 h 50 min
    Bit rate : 1 400 kb/s
    Width : 1 024 pixels
    Height : 426 pixels
    Display aspect ratio : 2.40:1
    Frame rate mode : Constant
    Frame rate : 23.976 (24000/1001) FPS
    Color space : YUV
    Chroma subsampling : 4:2:0
    Bit depth : 8 bits
    Scan type : Progressive
    Bits/(Pixel*Frame) : 0.134
    Stream size : 1.05 GiB (77%)
    Writing library : x264 core 148 r2638 7599210
    Encoding settings : cabac=1 / ref=12 / deblock=1:-2:-1 / analyse=0x3:0x113 / me=umh / subme=11 / psy=1 / psy_rd=1.15:1.15 / mixed_ref=1 / me_range=32 / chroma_me=1 / trellis=2 / 8x8dct=1 / cqm=0 / deadzone=21,11 / fast_pskip=0 / chroma_qp_offset=-6 / threads=6 / lookahead_threads=1 / sliced_threads=0 / nr=0 / decimate=0 / interlaced=0 / bluray_compat=0 / constrained_intra=0 / bframes=12 / b_pyramid=2 / b_adapt=2 / b_bias=0 / direct=1 / weightb=0 / open_gop=0 / weightp=2 / keyint=240 / keyint_min=23 / scenecut=40 / intra_refresh=0 / rc_lookahead=40 / rc=2pass / mbtree=1 / bitrate=1400 / ratetol=1.0 / qcomp=0.70 / qpmin=0 / qpmax=69 / qpstep=4 / cplxblur=20.0 / qblur=0.5 / vbv_maxrate=50000 / vbv_bufsize=65500 / nal_hrd=none / filler=0 / ip_ratio=1.40 / aq=1:1.00
    Default : Yes
    Forced : No

    Audio
    ID : 2
    Format : AC-3
    Format/Info : Audio Coding 3
    Mode extension : CM (complete main)
    Format settings, Endianness : Big
    Codec ID : A_AC3
    Duration : 1 h 50 min
    Bit rate mode : Constant
    Bit rate : 384 kb/s
    Channel(s) : 6 channels
    Channel positions : Front: L C R, Side: L R, LFE
    Sampling rate : 48.0 kHz
    Frame rate : 31.250 FPS (1536 spf)
    Compression mode : Lossy
    Stream size : 303 MiB (22%)
    Title : The.Headhunter's.Calling.2O16.WEB-DLRip-AVC.by.White Smoke.R.G.Resident.mkv
    Language : Russian
    Default : Yes
    Forced : No

    Menu
    00:00:00.000 : en:Chapter 1
    00:08:56.494 : en:Chapter 2
    00:20:53.085 : en:Chapter 3
    00:29:33.105 : en:Chapter 4
    00:38:20.172 : en:Chapter 5
    00:47:40.607 : en:Chapter 6
    00:57:22.480 : en:Chapter 7
    01:07:39.471 : en:Chapter 8
    01:17:40.487 : en:Chapter 9
    01:25:16.693 : en:Chapter 10
    01:35:09.619 : en:Chapter 11
    01:45:37.330 : en:Chapter 12
10.0 из 10
голосов: 5
6,4/10
6.4/10
Alik 17-06-2017, 19:53
Информация
Посетители, находящиеся в группе Гости, не могут оставлять комментарии к данной публикации.