Панель пользователя
Регистрация

Воспользуйтесь социальными сетями для входа на https://freerutor.com

vk odnoklassniki facebook mailru yandex google
Рекомендуем
Document
Счетчик
Голосуй за нас
Популярное
загрузка...
Товары интернет магазина
Document

Прикончи их всех (2017) BDRip-AVC | Лицензия

Прикончи их всех (2017) BDRip-AVC | Лицензия
Участники торрент обмена
Сидов Пиров Скачали
11 1 274
Характеристика
Размер Файлы
2.06 GB
Релиз группа
Поделиться раздачей
Фильмы (AVC)
Наименование: Прикончи их всех
Оригинальное наименование: Kill'em All
Произведено: США, Arramis Films Inc., ITN Films, March On Productions
Категория: боевик
Режиссер постановщик: Питер Малота
В главных ролях: Жан-Клод Ван Дамм, Петер Стормаре, Отем Ризер, Мария Кончита Алонсо, Дэниэл Бернхард, Кристофер Ван Варенберг, Джеймс П. Беннетт, Ганс Марреро, Пол Сэмпсон
Краткое описание: В обычную американскую больницу поступает необычный пациент, находящийся при смерти после массовой перестрелки. Бойня возобновляется, когда по его следу приходит группа вооружённых налётчиков. Оставшейся в живых свидетельнице - молодой медсестре Сюзанне - придётся иметь дело с агентами ФБР и участниками международного заговора.
  • Видео: MPEG-4 AVC, 2171 Кбит/с, 1024x426
    Аудио: Русский, английский (AC3, 6 ch, 448 Кбит/с)
    Продолжительность: 01:35:50
    Перевод: Профессиональный многоголосый (Лицензия)
    Субтитры: Русские, английские
  • Прикончи их всех (2017) BDRip-AVC | Лицензия Прикончи их всех (2017) BDRip-AVC | Лицензия Прикончи их всех (2017) BDRip-AVC | Лицензия
  • General
    Unique ID : 242643723370399460179381732059806220125 (0xB68B7B343A0A6C1CB9DAE0A9418CBF5D)
    Complete name : D:Kill.em.2017.MVO.BDRip.AVC.ExKinoRay.mkv
    Format : Matroska
    Format version : Version 2
    File size : 2.06 GiB
    Duration : 1 h 35 min
    Overall bit rate : 3 070 kb/s
    Movie name : Kill'em All 2017 from ExKinoRay
    Encoded date : UTC 2017-06-16 16:20:05
    Writing application : mkvmerge v5.6.0 ('Kenya Kane') built on May 27 2012 16:44:04
    Writing library : libebml v1.2.3 + libmatroska v1.3.0

    Video
    ID : 1
    Format : AVC
    Format/Info : Advanced Video Codec
    Format profile : High@L4.1
    Format settings, CABAC : Yes
    Format settings, ReFrames : 12 frames
    Codec ID : V_MPEG4/ISO/AVC
    Duration : 1 h 35 min
    Bit rate : 2 171 kb/s
    Width : 1 024 pixels
    Height : 426 pixels
    Display aspect ratio : 2.40:1
    Frame rate mode : Constant
    Frame rate : 23.976 (24000/1001) FPS
    Color space : YUV
    Chroma subsampling : 4:2:0
    Bit depth : 8 bits
    Scan type : Progressive
    Bits/(Pixel*Frame) : 0.208
    Stream size : 1.41 GiB (69%)
    Writing library : x264 core 144 r2525 40bb568
    Encoding settings : cabac=1 / ref=12 / deblock=1:-3:-3 / analyse=0x3:0x113 / me=umh / subme=10 / psy=1 / psy_rd=1.00:0.00 / mixed_ref=1 / me_range=32 / chroma_me=1 / trellis=2 / 8x8dct=1 / cqm=0 / deadzone=21,11 / fast_pskip=1 / chroma_qp_offset=-2 / threads=12 / lookahead_threads=3 / sliced_threads=0 / nr=0 / decimate=0 / interlaced=0 / bluray_compat=0 / constrained_intra=0 / bframes=11 / b_pyramid=2 / b_adapt=2 / b_bias=0 / direct=3 / weightb=1 / open_gop=0 / weightp=2 / keyint=240 / keyint_min=23 / scenecut=40 / intra_refresh=0 / rc_lookahead=40 / rc=2pass / mbtree=0 / bitrate=2171 / ratetol=1.0 / qcomp=0.60 / qpmin=0 / qpmax=51 / qpstep=4 / cplxblur=20.0 / qblur=0.5 / vbv_maxrate=50000 / vbv_bufsize=62500 / nal_hrd=none / filler=0 / ip_ratio=1.40 / pb_ratio=1.30 / aq=3:0.80
    Language : English
    Default : Yes
    Forced : No
    Color range : Limited
    Color primaries : BT.709
    Transfer characteristics : BT.709
    Matrix coefficients : BT.709

    Audio #1
    ID : 2
    Format : AC-3
    Format/Info : Audio Coding 3
    Mode extension : CM (complete main)
    Format settings, Endianness : Big
    Codec ID : A_AC3
    Duration : 1 h 35 min
    Bit rate mode : Constant
    Bit rate : 448 kb/s
    Channel(s) : 6 channels
    Channel positions : Front: L C R, Side: L R, LFE
    Sampling rate : 48.0 kHz
    Frame rate : 31.250 FPS (1536 spf)
    Compression mode : Lossy
    Stream size : 307 MiB (15%)
    Title : MVO (Blu-Ray EUR)
    Language : Russian
    Default : Yes
    Forced : No

    Audio #2
    ID : 3
    Format : AC-3
    Format/Info : Audio Coding 3
    Mode extension : CM (complete main)
    Format settings, Endianness : Big
    Codec ID : A_AC3
    Duration : 1 h 35 min
    Bit rate mode : Constant
    Bit rate : 448 kb/s
    Channel(s) : 6 channels
    Channel positions : Front: L C R, Side: L R, LFE
    Sampling rate : 48.0 kHz
    Frame rate : 31.250 FPS (1536 spf)
    Compression mode : Lossy
    Stream size : 307 MiB (15%)
    Language : English
    Default : No
    Forced : No

    Text #1
    ID : 4
    Format : UTF-8
    Codec ID : S_TEXT/UTF8
    Codec ID/Info : UTF-8 Plain Text
    Title : Full
    Language : Russian
    Default : No
    Forced : No

    Text #2
    ID : 5
    Format : UTF-8
    Codec ID : S_TEXT/UTF8
    Codec ID/Info : UTF-8 Plain Text
    Language : English
    Default : No
    Forced : No

    Menu
    00:00:00.000 : :Chapter 01
    00:10:02.602 : :Chapter 02
    00:15:03.652 : :Chapter 03
    00:20:25.599 : :Chapter 04
    00:23:32.661 : :Chapter 05
    00:30:05.678 : :Chapter 06
    00:38:21.716 : :Chapter 07
    00:43:43.454 : :Chapter 08
    00:48:37.873 : :Chapter 09
    00:53:32.000 : :Chapter 10
    00:58:52.278 : :Chapter 11
    01:03:58.334 : :Chapter 12
    01:08:31.065 : :Chapter 13
    01:12:44.068 : :Chapter 14
    01:21:30.176 : :Chapter 15
    01:28:14.122 : :Chapter 16
6.8 из 10
голосов: 4
4,4/10
Alik 17-06-2017, 08:20
Информация
Посетители, находящиеся в группе Гости, не могут оставлять комментарии к данной публикации.