Панель пользователя
Регистрация

Воспользуйтесь социальными сетями для входа на https://freerutor.com

vk odnoklassniki facebook mailru yandex google
Рекомендуем
Document
Счетчик
Пожертвование
Голосуй за нас
Товары интернет магазина
Document

Битва преподов (2017) BDRip 720p | P

Битва преподов (2017) BDRip 720p | P
Участники торрент обмена
Сидов Пиров Скачали
12 0 801
Характеристика
Размер Файлы
3.33 GB
Поделиться раздачей
Фильмы (720,1080,Blu-Ray)
Название: Битва преподов
Оригинальное название: Fist Fight
Жанр: Комедия
Выпущено: США, 21 Laps Entertainment, New Line Cinema
Режиссер: Ричи Кин
В ролях: Чарли Дэй, Айс Кьюб, Трэйси Морган, Джиллиан Белл, Дин Норрис, Кристина Хендрикс, Кумэйл Нанджиани, Дэннис Хэйсбёрт, ДжоАнна Гарсиа Суишер
Краткое описание: Когда один школьный учитель добивается увольнения другого, последний вызывает его выяснить отношения после занятий с помощью кулаков.
  • Видео: MPEG-4 AVC, 1280x720, 4 588 Kbps
    Аудио: Русский (AC3, 2 ch, 192 Кбит/с), английский (AC3, 6 ch, 448 Кбит/с)
    Продолжительность: 01:31:01
    Перевод: Профессиональный многоголосый (Студия "Paradox" & Omskbird records)
    Субтитры: Английские
    Без рекламы!

    Внимание: НЕ НОРМАТИВНАЯ ЛЕКСИКА!!!
  • Битва преподов (2017) BDRip 720p | P Битва преподов (2017) BDRip 720p | P Битва преподов (2017) BDRip 720p | P
  • Формат : Matroska
    Версия формата : Version 2
    Размер файла : 3,33 Гбайт
    Продолжительность : 1 ч. 31 м.
    Общий поток : 5230 Кбит/сек
    Дата кодирования : UTC 2017-06-16 04:48:37
    Программа кодирования : mkvmerge v5.3.0 ('I could have danced') built on Feb 9 2012 10:38:07
    Библиотека кодирования : libebml v1.2.3 + libmatroska v1.3.0
    Attachments : poster (12).jpg

    Видео
    Идентификатор : 1
    Формат : AVC
    Формат/Информация : Advanced Video Codec
    Профиль формата : High@L4.1
    Параметр CABAC формата : Да
    Параметр ReFrames формата : 12 кадров
    Идентификатор кодека : V_MPEG4/ISO/AVC
    Продолжительность : 1 ч. 31 м.
    Битрейт : 4588 Кбит/сек
    Ширина : 1280 пикселей
    Высота : 720 пикселей
    Соотношение сторон : 16:9
    Режим частоты кадров : Постоянный
    Частота кадров : 23,976 (24000/1001) кадра/сек
    Цветовое пространство : YUV
    Субдискретизация насыщенности : 4:2:0
    Битовая глубина : 8 бит
    Тип развёртки : Прогрессивная
    Бит/(Пиксели*Кадры) : 0.208
    Размер потока : 2,85 Гбайт (86%)
    Библиотека кодирования : x264 core 146 r2538 121396c
    Настройки программы : cabac=1 / ref=12 / deblock=1:-3:-3 / analyse=0x3:0x133 / me=umh / subme=11 / psy=1 / psy_rd=1.00:0.00 / mixed_ref=1 / me_range=32 / chroma_me=1 / trellis=2 / 8x8dct=1 / cqm=0 / deadzone=21,11 / fast_pskip=0 / chroma_qp_offset=-2 / threads=12 / lookahead_threads=3 / sliced_threads=0 / nr=0 / decimate=1 / interlaced=0 / bluray_compat=0 / constrained_intra=0 / bframes=11 / b_pyramid=2 / b_adapt=2 / b_bias=0 / direct=3 / weightb=1 / open_gop=0 / weightp=2 / keyint=240 / keyint_min=24 / scenecut=40 / intra_refresh=0 / rc=2pass / mbtree=0 / bitrate=4588 / ratetol=1.0 / qcomp=0.60 / qpmin=0 / qpmax=69 / qpstep=4 / cplxblur=20.0 / qblur=0.5 / ip_ratio=1.40 / pb_ratio=1.30 / aq=3:0.90
    Язык : English
    Default : Да
    Forced : Нет

    Аудио #1
    Идентификатор : 2
    Формат : AC-3
    Формат/Информация : Audio Coding 3
    Расширение режима : CM (complete main)
    Параметр Endianness формата : Big
    Идентификатор кодека : A_AC3
    Продолжительность : 1 ч. 31 м.
    Вид битрейта : Постоянный
    Битрейт : 192 Кбит/сек
    Каналы : 2 канала
    Расположение каналов : Front: L R
    Частота : 48,0 КГц
    Частота кадров : 31,250 кадров/сек (1536 spf)
    Битовая глубина : 16 бит
    Метод сжатия : С потерями
    Размер потока : 125 Мбайт (4%)
    Заголовок : Любительский (многоголосый закадровый) "Paradox" & Omskbird records]
    Язык : Russian
    Default : Да
    Forced : Нет

    Аудио #2
    Идентификатор : 3
    Формат : AC-3
    Формат/Информация : Audio Coding 3
    Расширение режима : CM (complete main)
    Параметр Endianness формата : Big
    Идентификатор кодека : A_AC3
    Продолжительность : 1 ч. 31 м.
    Вид битрейта : Постоянный
    Битрейт : 448 Кбит/сек
    Каналы : 6 каналов
    Расположение каналов : Front: L C R, Side: L R, LFE
    Частота : 48,0 КГц
    Частота кадров : 31,250 кадров/сек (1536 spf)
    Битовая глубина : 16 бит
    Метод сжатия : С потерями
    Размер потока : 292 Мбайт (9%)
    Язык : English
    Default : Нет
    Forced : Нет

    Текст #1
    Идентификатор : 4
    Формат : UTF-8
    Идентификатор кодека : S_TEXT/UTF8
    Идентификатор кодека/Информация : UTF-8 Plain Text
    Заголовок : SDH
    Язык : English
    Default : Нет
    Forced : Нет

    Текст #2
    Идентификатор : 5
    Формат : UTF-8
    Идентификатор кодека : S_TEXT/UTF8
    Идентификатор кодека/Информация : UTF-8 Plain Text
    Язык : English
    Default : Нет
    Forced : Нет
7.8 из 10
голосов: 4
5.355 2554 5.7 9506
Alik 17-06-2017, 08:25

swatt44 | 17-06-2017, 15:04 | Статус: Оффлайн

37.8% скачалось и капец...дайте фильму scratch
Информация
Посетители, находящиеся в группе Гости, не могут оставлять комментарии к данной публикации.