Панель пользователя
Регистрация

Воспользуйтесь социальными сетями для входа на https://freerutor.com

vk odnoklassniki facebook mailru yandex google
Рекомендуем
Document
Счетчик
Голосуй за нас
Популярное
загрузка...
Товары интернет магазина
Document

Любовь с ограничениями (2016) BDRip-AVC | Лицензия

Любовь с ограничениями (2016) BDRip-AVC | Лицензия
Участники торрент обмена
Сидов Пиров Скачали
5 2 145
Характеристика
Размер Файлы
1.68 GB
Релиз группа
Поделиться раздачей
Фильмы (AVC)
Наименование: Любовь с ограничениями
Произведено: Россия, Art Pictures Studio, ВайТ Медиа
Категория: комедия, мелодрама
Режиссер постановщик: Дмитрий Тюрин
В главных ролях: Павел Прилучный, Анна Старшенбаум, Илья Глинников, Алексей Чадов, Алексей Воробьев, Кирилл Плетнёв, Сергей Кутергин, Тимур Боканча, Ксения Иванова, Павел Шевандо
Краткое описание: Однажды самый обычный парень Миша узнает об указе Президента России, по которому в крупных компаниях должно работать два процента людей с ограниченными возможностями. И тут в его «светлую» голову приходит идея, как воплотить свою давнюю мечту о богатой и беззаботной жизни. Не долго думая, Миша получает фиктивные медицинские документы, садится в коляску и едет на собеседование, и не куда-нибудь, а в сам «Нашгаз»! И, о чудо, им как раз не хватает одного человека до той самой квоты. Жизнь удалась! Престижная работа, большая зарплата, отличная квартира, весь мир открыт для него, только есть одно «но», одно маленькое ограничение - он должен постоянно быть в инвалидном кресле! И не просто быть в нем, он при этом еще не должен «спалиться». Миша, попадая подряд в одну за другой нелепые ситуации, понимает, что единственное реальное место «набраться опыта» - клуб людей с ограниченными возможностями. Он вступает в него... и сразу же становится там всеобщим любимцем. Ведь в его глазах нет потухшей надежды, он оптимистичен и весел (правда, совсем не по той причине, по которой все там думают). Особенно он симпатичен Марине, очень милой и красивой девушке, которая с детства прикована к коляске. А дальше для Миши все сильно запуталось - офис, деньги, вечеринки, клуб инвалидов, ограничения, друзья, совесть, и, конечно же, любовь. Как выпутаться из этой ситуации? Как признаться всем, и особенно ей, в своей афере? И как понять, что ты действительно хочешь и чувствуешь?
  • Видео данные: MPEG-4 AVC, 1901 Кбит/с, 1024x428
    Аудио данные: Русский (AC3, 6 ch, 448 Кбит/с)
    Перевод: Оригинал (Лицензия)
    Продолжительность: 01:42:38
  • Любовь с ограничениями (2016) BDRip-AVC | Лицензия Любовь с ограничениями (2016) BDRip-AVC | Лицензия Любовь с ограничениями (2016) BDRip-AVC | Лицензия
  • General
    Unique ID : 211471463121400459489758596046517297276 (0x9F17EC1D38C508AF9A98565BA791E07C)
    Complete name : DLyubov.s.ogranicneniyami.2016.BDRip.AVC.ExKinoRay.mkv
    Format : Matroska
    Format version : Version 2
    File size : 1.68 GiB
    Duration : 1 h 42 min
    Overall bit rate : 2 349 kb/s
    Movie name : Любовь с ограничениями (2016) from ExKinoRay
    Encoded date : UTC 2017-06-16 11:10:31
    Writing application : mkvmerge v5.6.0 ('Kenya Kane') built on May 27 2012 16:44:04
    Writing library : libebml v1.2.3 + libmatroska v1.3.0

    Video
    ID : 1
    Format : AVC
    Format/Info : Advanced Video Codec
    Format profile : High@L4.1
    Format settings, CABAC : Yes
    Format settings, ReFrames : 11 frames
    Codec ID : V_MPEG4/ISO/AVC
    Duration : 1 h 42 min
    Bit rate : 1 901 kb/s
    Width : 1 024 pixels
    Height : 428 pixels
    Display aspect ratio : 2.40:1
    Frame rate mode : Constant
    Frame rate : 24.000 FPS
    Color space : YUV
    Chroma subsampling : 4:2:0
    Bit depth : 8 bits
    Scan type : Progressive
    Bits/(Pixel*Frame) : 0.181
    Stream size : 1.33 GiB (79%)
    Title : Enigma
    Writing library : x264 core 144 r2525 40bb568
    Encoding settings : cabac=1 / ref=11 / deblock=1:-2:-2 / analyse=0x3:0x113 / me=umh / subme=10 / psy=1 / psy_rd=1.03:0.08 / mixed_ref=1 / me_range=32 / chroma_me=1 / trellis=2 / 8x8dct=1 / cqm=0 / deadzone=21,11 / fast_pskip=1 / chroma_qp_offset=-3 / threads=12 / lookahead_threads=3 / sliced_threads=0 / nr=0 / decimate=0 / interlaced=0 / bluray_compat=0 / constrained_intra=0 / bframes=10 / b_pyramid=2 / b_adapt=2 / b_bias=0 / direct=3 / weightb=1 / open_gop=0 / weightp=2 / keyint=240 / keyint_min=24 / scenecut=40 / intra_refresh=0 / rc_lookahead=40 / rc=2pass / mbtree=0 / bitrate=1901 / ratetol=1.0 / qcomp=0.60 / qpmin=0 / qpmax=51 / qpstep=4 / cplxblur=20.0 / qblur=0.5 / vbv_maxrate=50000 / vbv_bufsize=62500 / nal_hrd=none / filler=0 / ip_ratio=1.40 / pb_ratio=1.30 / aq=1:1.00
    Language : English
    Default : Yes
    Forced : No
    Color range : Limited
    Color primaries : BT.709
    Transfer characteristics : BT.709
    Matrix coefficients : BT.709

    Audio
    ID : 2
    Format : AC-3
    Format/Info : Audio Coding 3
    Mode extension : CM (complete main)
    Format settings, Endianness : Big
    Codec ID : A_AC3
    Duration : 1 h 42 min
    Bit rate mode : Constant
    Bit rate : 448 kb/s
    Channel(s) : 6 channels
    Channel positions : Front: L C R, Side: L R, LFE
    Sampling rate : 48.0 kHz
    Frame rate : 31.250 FPS (1536 spf)
    Compression mode : Lossy
    Stream size : 329 MiB (19%)
    Title : Лицензия
    Language : Russian
    Default : Yes
    Forced : No

    Menu
    00:00:00.000 : :Chapter 01
    00:02:32.250 : :Chapter 02
    00:13:15.791 : :Chapter 03
    00:27:14.291 : :Chapter 04
    00:37:00.291 : :Chapter 05
    00:48:26.291 : :Chapter 06
    01:02:44.833 : :Chapter 07
    01:14:13.541 : :Chapter 08
    01:28:06.583 : :Chapter 09
7.0 из 10
голосов: 6
6,4/10
Alik 17-06-2017, 08:27
Информация
Посетители, находящиеся в группе Гости, не могут оставлять комментарии к данной публикации.