Панель пользователя
Регистрация

Воспользуйтесь социальными сетями для входа на https://freerutor.com

vk odnoklassniki facebook mailru yandex google
Рекомендуем
Document
Счетчик
Голосуй за нас
Популярное
загрузка...
Товары интернет магазина
Document

Железнодорожные тигры (2016) BDRip 720p

Железнодорожные тигры (2016) BDRip 720p
Участники торрент обмена
Сидов Пиров Скачали
0 0 0
Характеристика
Размер Файлы
6.65 GB
Поделиться раздачей
Фильмы (720,1080,Blu-Ray)
Наименование: Железнодорожные тигры
Оригинальное наименование: Railroad Tigers
Категория: Боевик, комедия, военный
Произведено: Китай
Режиссер постановщик: Дин Шэн
В главных ролях: Джеки Чан, Цзытао Хуан, Джейси Чан, Ван Кай, Хироюки Икэути, Сан Пин, Алан Нг, Сюй Фань, Даррен Ван, Кодзи Яно
Краткое описание: В декабре 1941 года Япония расширяет оккупацию соседних стран в Юго-Восточной Азии. Железная дорога от Тяньцзинь Нанкин в Восточном Китае стала ключевым маршрутом для военных перевозок под усиленной охраной японских солдат. Работник железной дороги Ма Юань организовывает команду борцов за свободу. Используя свои глубокие знания железнодорожных сетей, он со своими людьми устраивает засады для японских солдат и ворует их припасы, чтобы накормить голодающих соотечественников. Местные называют своих героев «железнодорожными тиграми». И когда борцы за свободу оказываются на неправильной стороне путей при отправке подкрепления японцам в провинцию Шаньдун, Ма Юань решается на опасный поступок — взорвать тщательно охраняемый железнодорожный мост.
  • Видео данные: MPEG-4 AVC, 5627 kb/s, 1280x536
    Аудио данные: Русский (AC3, 6 ch, 640 Кбит/с), китайский (DTS, 6 ch, 1509 Кбит/с),
    Перевод: Профессиональный многоголосый [Jaskier]
    Продолжительность: 02:04:15
    Присутствует аудио-реклама!
  • Железнодорожные тигры (2016) BDRip 720p Железнодорожные тигры (2016) BDRip 720p Железнодорожные тигры (2016) BDRip 720p
  • Общее
    Уникальный идентификатор : 198471772314013219879846599009806310203 (0x955045DF7EC67E81B5F163664EEFDB3B)
    Полное имя : D:\загрузки\Railroad.Tigers.2016.720p.BluRay- Jaskier.mkv
    Формат : Matroska
    Версия формата : Version 2
    Размер файла : 6,65 Гбайт
    Продолжительность : 2 ч. 4 м.
    Общий поток : 7667 Кбит/сек
    Дата кодирования : UTC 2017-06-15 09:02:33
    Программа кодирования : mkvmerge v7.8.0 ('River Man') 32bit built on Apr 3 2015 12:11:22
    Библиотека кодирования : libebml v1.3.1 + libmatroska v1.4.2

    Видео
    Идентификатор : 1
    Формат : AVC
    Формат/Информация : Advanced Video Codec
    Профиль формата : High@L4.1
    Параметр CABAC формата : Да
    Параметр ReFrames формата : 9 кадров
    Идентификатор кодека : V_MPEG4/ISO/AVC
    Продолжительность : 2 ч. 4 м.
    Битрейт : 5366 Кбит/сек
    Ширина : 1280 пикселей
    Высота : 536 пикселей
    Соотношение сторон : 2,40:1
    Режим частоты кадров : Постоянный
    Частота кадров : 24,000 кадра/сек
    Цветовое пространство : YUV
    Субдискретизация насыщенности : 4:2:0
    Битовая глубина : 8 бит
    Тип развёртки : Прогрессивная
    Бит/(Пиксели*Кадры) : 0.326
    Размер потока : 4,66 Гбайт (70%)
    Библиотека кодирования : x264 core 149 r2771+45 509cceb 7mod [8-bit@all X86_64]
    Настройки программы : cabac=1 / ref=9 / deblock=1:-3:-3 / analyse=0x3:0x113 / me=umh / subme=11 / psy=1 / fade_compensate=0.00 / psy_rd=1.00:0.05 / mixed_ref=1 / me_range=32 / chroma_me=1 / trellis=2 / 8x8dct=1 / cqm=0 / deadzone=21,11 / fast_pskip=0 / chroma_qp_offset=-2 / threads=12 / lookahead_threads=2 / sliced_threads=0 / nr=0 / decimate=1 / interlaced=0 / bluray_compat=0 / constrained_intra=0 / fgo=0 / bframes=8 / b_pyramid=2 / b_adapt=2 / b_bias=0 / direct=3 / weightb=1 / open_gop=0 / weightp=2 / keyint=250 / keyint_min=24 / scenecut=40 / intra_refresh=0 / rc_lookahead=40 / rc=crf / mbtree=0 / crf=17.0000 / qcomp=0.60 / qpmin=0:0:0 / qpmax=69:69:69 / qpstep=4 / vbv_maxrate=30000 / vbv_bufsize=30000 / crf_max=0.0 / nal_hrd=none / filler=0 / ip_ratio=1.40 / pb_ratio=1.30 / aq=3:1.00 / aq-sensitivity=10.00 / aq-factor=1.00:1.00:1.00 / aq2=0 / aq3=0
    Язык : Chinese
    Default : Да
    Forced : Нет
    Цветовой диапазон : Limited
    Коэффициенты матрицы : BT.709

    Аудио #1
    Идентификатор : 2
    Формат : AC-3
    Формат/Информация : Audio Coding 3
    Параметр Endianness формата : Big
    Идентификатор кодека : A_AC3
    Продолжительность : 2 ч. 4 м.
    Вид битрейта : Постоянный
    Битрейт : 640 Кбит/сек
    Каналы : 6 каналов
    Расположение каналов : Front: L C R, Side: L R, LFE
    Частота : 48,0 КГц
    Частота кадров : 31,250 кадров/сек (1536 spf)
    Битовая глубина : 16 бит
    Метод сжатия : С потерями
    Размер потока : 569 Мбайт (8%)
    Заголовок : Jaskier
    Язык : Russian
    ServiceKind/String : Complete Main
    Default : Да
    Forced : Нет

    Аудио #2
    Идентификатор : 3
    Формат : DTS
    Формат/Информация : Digital Theater Systems
    Режим : 16
    Параметр Endianness формата : Big
    Идентификатор кодека : A_DTS
    Продолжительность : 2 ч. 4 м.
    Вид битрейта : Постоянный
    Битрейт : 1509 Кбит/сек
    Каналы : 6 каналов
    Расположение каналов : Front: L C R, Side: L R, LFE
    Частота : 48,0 КГц
    Частота кадров : 93,750 кадра/сек (512 spf)
    Битовая глубина : 24 бит
    Метод сжатия : С потерями
    Размер потока : 1,31 Гбайт (20%)
    Язык : Chinese
    Default : Нет
    Forced : Нет

    Текст
    Идентификатор : 4
    Формат : UTF-8
    Идентификатор кодека : S_TEXT/UTF8
    Идентификатор кодека/Информация : UTF-8 Plain Text
    Язык : English
    Default : Нет
    Forced : Нет

    Меню
    00:00:00.000 : en:00:00:00.000
    00:11:37.083 : en:00:11:37.083
    00:20:22.792 : en:00:20:22.792
    00:31:07.167 : en:00:31:07.167
    00:41:32.583 : en:00:41:32.583
    00:54:51.583 : en:00:54:51.583
    01:02:03.917 : en:01:02:03.917
    01:14:17.458 : en:01:14:17.458
    01:23:37.167 : en:01:23:37.167
    01:31:45.125 : en:01:31:45.125
    01:42:10.083 : en:01:42:10.083
    01:51:37.042 : en:01:51:37.042
7.0 из 10
голосов: 3
6/10
5.9/10
karta 15-06-2017, 12:58
Информация
Посетители, находящиеся в группе Гости, не могут оставлять комментарии к данной публикации.