Панель пользователя
Регистрация

Воспользуйтесь социальными сетями для входа на https://freerutor.com

vk odnoklassniki facebook mailru yandex google
Рекомендуем
Document
Счетчик
Пожертвование
Голосуй за нас
Товары интернет магазина
Document

Рождение нации (2016) Blu-Ray Remux 1080p | Лицензия

Рождение нации (2016) Blu-Ray Remux 1080p | Лицензия
Участники торрент обмена
Сидов Пиров Скачали
1 0 55
Характеристика
Размер Файлы
23.11 GB
Поделиться раздачей
Фильмы (720,1080,Blu-Ray)
Наименование: Рождение нации
Оригинальное наименование: The Birth of a Nation
Произведено: США, Argent Pictures, Bron Studios, Creative Wealth Media Finance
Категория: драма, биография, история
Режиссер постановщик: Нэйт Паркер
В главных ролях: Нэйт Паркер, Арми Хаммер, Пенелопа Энн Миллер, Джеки Эрл Хейли, Марк Бун Джуниор, Колман Доминго, Онжаню Эллис, Дуайт Генри, Эйджа Наоми Кинг, Эстер Скотт
Краткое описание: Историко-драматический байопик о чернокожем рабе-мятежнике Нэте Тёрнере. Веря в свою богоизбранность, Тёрнер воспринимает затмение как знак свыше: черная ладонь накрывает солнце. Под его предводительством вспыхивает восстание, потрясшее рабовладельческую Америку.
  • Видео данные: MPEG-4 AVC, 22700 Кбит/с, 1920x1080
    Аудио данные: Русский (DTS, 6 ch, 768 Кбит/с), украинский (AC3, 6 ch, 448 Кбит/с), английский (DTS-HD MA, 6 ch, 3483 Кбит/с), (AC3, 2 ch, 224 Кбит/с)
    Продолжительность: 01:59:53
    Перевод: Профессиональный многоголосый (лицензия)
    Субтитры: Русские, английские, украинские
  • Рождение нации (2016) Blu-Ray Remux 1080p | Лицензия Рождение нации (2016) Blu-Ray Remux 1080p | Лицензия Рождение нации (2016) Blu-Ray Remux 1080p | Лицензия
  • General
    Format : Matroska
    Format version : Version 4 / Version 2
    File size : 23.1 GiB
    Duration : 1 h 59 min
    Overall bit rate mode : Variable
    Overall bit rate : 27.6 Mb/s
    Encoded date : UTC 2017-06-14 05:39:42
    Writing application : mkvmerge v12.0.0 ('Trust / Lust') 64bit
    Writing library : libebml v1.3.4 + libmatroska v1.4.5
    Attachments : poster.jpg

    Video
    ID : 1
    Format : AVC
    Format/Info : Advanced Video Codec
    Format profile : High@L4.1
    Format settings, CABAC : Yes
    Format settings, ReFrames : 2 frames
    Codec ID : V_MPEG4/ISO/AVC
    Duration : 1 h 59 min
    Bit rate mode : Variable
    Bit rate : 22.7 Mb/s
    Width : 1 920 pixels
    Height : 1 080 pixels
    Display aspect ratio : 16:9
    Frame rate mode : Constant
    Frame rate : 23.976 (24000/1001) FPS
    Color space : YUV
    Chroma subsampling : 4:2:0
    Bit depth : 8 bits
    Scan type : Progressive
    Bits/(Pixel*Frame) : 0.456
    Stream size : 19.0 GiB (82%)
    Default : Yes
    Forced : No

    Audio #1
    ID : 2
    Format : DTS
    Format/Info : Digital Theater Systems
    Mode : 16
    Format settings, Endianness : Big
    Codec ID : A_DTS
    Duration : 1 h 59 min
    Bit rate mode : Constant
    Bit rate : 768 kb/s
    Channel(s) : 6 channels
    Channel positions : Front: L C R, Side: L R, LFE
    Sampling rate : 48.0 kHz
    Frame rate : 93.750 FPS (512 spf)
    Bit depth : 24 bits
    Compression mode : Lossy
    Stream size : 659 MiB (3%)
    Language : Russian
    Default : Yes
    Forced : No

    Audio #2
    ID : 3
    Format : AC-3
    Format/Info : Audio Coding 3
    Format settings, Endianness : Big
    Codec ID : A_AC3
    Duration : 1 h 59 min
    Bit rate mode : Constant
    Bit rate : 448 kb/s
    Channel(s) : 6 channels
    Channel positions : Front: L C R, Side: L R, LFE
    Sampling rate : 48.0 kHz
    Frame rate : 31.250 FPS (1536 spf)
    Bit depth : 16 bits
    Compression mode : Lossy
    Stream size : 384 MiB (2%)
    Language : Ukrainian
    Service kind : Complete Main
    Default : No
    Forced : No

    Audio #3
    ID : 4
    Format : DTS
    Format/Info : Digital Theater Systems
    Format profile : MA / Core
    Mode : 16
    Format settings, Endianness : Big
    Codec ID : A_DTS
    Duration : 1 h 59 min
    Bit rate mode : Variable / Constant
    Bit rate : 3 483 kb/s / 1 509 kb/s
    Channel(s) : 6 channels
    Channel positions : Front: L C R, Side: L R, LFE
    Sampling rate : 48.0 kHz
    Frame rate : 93.750 FPS (512 spf)
    Bit depth : 24 bits
    Compression mode : Lossless / Lossy
    Stream size : 2.92 GiB (13%)
    Language : English
    Default : No
    Forced : No

    Audio #4
    ID : 5
    Format : AC-3
    Format/Info : Audio Coding 3
    Format settings, Endianness : Big
    Codec ID : A_AC3
    Duration : 1 h 59 min
    Bit rate mode : Constant
    Bit rate : 224 kb/s
    Channel(s) : 2 channels
    Channel positions : Front: L R
    Sampling rate : 48.0 kHz
    Frame rate : 31.250 FPS (1536 spf)
    Bit depth : 16 bits
    Compression mode : Lossy
    Stream size : 192 MiB (1%)
    Title : Comment
    Language : English
    Service kind : Complete Main
    Default : No
    Forced : No

    Text #1
    ID : 6
    Format : UTF-8
    Codec ID : S_TEXT/UTF8
    Codec ID/Info : UTF-8 Plain Text
    Duration : 1 h 58 min
    Bit rate : 57 b/s
    Count of elements : 947
    Stream size : 50.2 KiB (0%)
    Title : Полные
    Language : Russian
    Default : Yes
    Forced : No

    Text #2
    ID : 7
    Format : UTF-8
    Codec ID : S_TEXT/UTF8
    Codec ID/Info : UTF-8 Plain Text
    Duration : 1 h 58 min
    Bit rate : 144 b/s
    Count of elements : 1644
    Stream size : 125 KiB (0%)
    Title : Комментарии режиссера
    Language : Russian
    Default : No
    Forced : No

    Text #3
    ID : 8
    Format : UTF-8
    Codec ID : S_TEXT/UTF8
    Codec ID/Info : UTF-8 Plain Text
    Duration : 1 h 58 min
    Bit rate : 55 b/s
    Count of elements : 949
    Stream size : 48.0 KiB (0%)
    Language : Ukrainian
    Default : No
    Forced : No

    Text #4
    ID : 9
    Format : UTF-8
    Codec ID : S_TEXT/UTF8
    Codec ID/Info : UTF-8 Plain Text
    Duration : 1 min 7 s
    Bit rate : 51 b/s
    Count of elements : 16
    Stream size : 431 Bytes (0%)
    Title : forced
    Language : English
    Default : No
    Forced : No

    Text #5
    ID : 10
    Format : UTF-8
    Codec ID : S_TEXT/UTF8
    Codec ID/Info : UTF-8 Plain Text
    Duration : 1 h 46 min
    Bit rate : 40 b/s
    Count of elements : 943
    Stream size : 31.7 KiB (0%)
    Title : full
    Language : English
    Default : No
    Forced : No

    Menu
    00:00:00.000 : en:Chapter 1
    00:04:18.758 : en:Chapter 2
    00:07:45.465 : en:Chapter 3
    00:10:05.062 : en:Chapter 4
    00:14:37.877 : en:Chapter 5
    00:17:42.811 : en:Chapter 6
    00:23:06.927 : en:Chapter 7
    00:28:35.171 : en:Chapter 8
    00:32:13.973 : en:Chapter 9
    00:37:09.227 : en:Chapter 10
    00:39:50.429 : en:Chapter 11
    00:42:53.571 : en:Chapter 12
    00:46:46.386 : en:Chapter 13
    00:51:11.151 : en:Chapter 14
    00:54:41.152 : en:Chapter 15
    00:59:01.412 : en:Chapter 16
    01:03:21.714 : en:Chapter 17
    01:08:42.201 : en:Chapter 18
    01:13:05.422 : en:Chapter 19
    01:17:02.909 : en:Chapter 20
    01:22:13.094 : en:Chapter 21
    01:26:56.920 : en:Chapter 22
    01:30:54.740 : en:Chapter 23
    01:37:59.039 : en:Chapter 24
    01:41:42.971 : en:Chapter 25
    01:43:57.648 : en:Chapter 26
    01:47:25.939 : en:Chapter 27
    01:50:41.051 : en:Chapter 28
6.4 из 10
голосов: 5
5.862 1412 6.2 12326
Alik 15-06-2017, 09:00
Информация
Посетители, находящиеся в группе Гости, не могут оставлять комментарии к данной публикации.