Панель пользователя
Регистрация

Воспользуйтесь социальными сетями для входа на https://freerutor.com

vk odnoklassniki facebook mailru yandex google
Рекомендуем
Document
Счетчик
Голосуй за нас
Популярное
загрузка...
Товары интернет магазина
Document

Передельщик (Рубильник) (2017) WEB-DLRip-AVC

Передельщик (Рубильник) (2017) WEB-DLRip-AVC
Участники торрент обмена
Сидов Пиров Скачали
47 5 1403
Характеристика
Размер Файлы
1.87 GB
Релиз группа
Поделиться раздачей
Фильмы (AVC)
Наименование: Передельщик
Оригинальное наименование: Redivider (Kill Switch)
Произведено: Нидерланды, Германия, США, CTM Productions BV, FilmNation Entertainment
Категория: фантастика
Режиссер постановщик: Тим Смит
В главных ролях: Дэн Стивенс, Беренис Марло, Чарити Уэйкфилд, Тиго Гернандт, Хлоя-Мэй Катхилл, Гийс Шолтен ван Ашат, Бас Кейзер, Дон Альфонсо, Мике Либанон, Майк Реус
Краткое описание: Энергетическая компания «Альтерплекс» придумала, как получить доступ к неограниченной энергии. Для этих целей было построено устройство под названием Башня, которое получает энергию в чистом виде. Представители «Альтерплекса» нанимают бывшего астронавта Уилла для выполнения опасного задания.
  • Видео данные: MPEG-4 AVC, 2159 Кбит/с, 1024х426
    Аудио данные: Русский, английский (AC3, 6 ch, 384 Кбит/с)
    Продолжительность: 01:31:16
    Перевод: Любительский одноголосый (Bad Bajo)
    Субтитры: Английские
    Без рекламы!
  • Передельщик (Рубильник) (2017) WEB-DLRip-AVC Передельщик (Рубильник) (2017) WEB-DLRip-AVC Передельщик (Рубильник) (2017) WEB-DLRip-AVC
  • Общее
    Уникальный идентификатор : 174471786152590770743696632770731019615 (0x83420B328EC8E2A6B00965B424CD8D5F)
    Полное имя : D:Kill.Switch.2017.WEB-DLRip(AVC).OlLanDGroup.mkv
    Формат : Matroska
    Версия формата : Version 2
    Размер файла : 1,87 Гбайт
    Продолжительность : 1 ч. 31 м.
    Общий поток : 2929 Кбит/сек
    Название фильма : Kill.Switch.2017 #TorpedoUK#
    Дата кодирования : UTC 2017-06-14 13:17:32
    Программа кодирования : mkvmerge v7.8.0 ('River Man') 32bit built on Apr 3 2015 12:11:22
    Библиотека кодирования : libebml v1.3.1 + libmatroska v1.4.2
    Обложка : Yes
    Attachments : cover.jpg

    Видео
    Идентификатор : 1
    Формат : AVC
    Формат/Информация : Advanced Video Codec
    Профиль формата : High@L4.1
    Параметр CABAC формата : Да
    Параметр ReFrames формата : 10 кадров
    Идентификатор кодека : V_MPEG4/ISO/AVC
    Продолжительность : 1 ч. 31 м.
    Битрейт : 2159 Кбит/сек
    Ширина : 1024 пикселя
    Высота : 426 пикселей
    Соотношение сторон : 2,40:1
    Режим частоты кадров : Постоянный
    Частота кадров : 23,976 (24000/1001) кадра/сек
    Цветовое пространство : YUV
    Субдискретизация насыщенности : 4:2:0
    Битовая глубина : 8 бит
    Тип развёртки : Прогрессивная
    Бит/(Пиксели*Кадры) : 0.206
    Размер потока : 1,34 Гбайт (72%)
    Библиотека кодирования : x264 core 146 r2538 121396c
    Настройки программы : cabac=1 / ref=10 / deblock=1:-3:-3 / analyse=0x3:0x133 / me=umh / subme=11 / psy=1 / psy_rd=1.00:0.07 / mixed_ref=1 / me_range=48 / chroma_me=1 / trellis=2 / 8x8dct=1 / cqm=0 / deadzone=21,11 / fast_pskip=0 / chroma_qp_offset=-3 / threads=6 / lookahead_threads=1 / sliced_threads=0 / nr=0 / decimate=0 / interlaced=0 / bluray_compat=0 / constrained_intra=0 / bframes=10 / b_pyramid=2 / b_adapt=2 / b_bias=0 / direct=3 / weightb=1 / open_gop=0 / weightp=2 / keyint=240 / keyint_min=23 / scenecut=40 / intra_refresh=0 / rc_lookahead=40 / rc=2pass / mbtree=0 / bitrate=2159 / ratetol=1.0 / qcomp=0.60 / qpmin=0 / qpmax=69 / qpstep=4 / cplxblur=20.0 / qblur=0.5 / vbv_maxrate=50000 / vbv_bufsize=62500 / nal_hrd=none / filler=0 / ip_ratio=1.40 / pb_ratio=1.30 / aq=1:1.00
    Язык : English
    Default : Да
    Forced : Нет

    Аудио #1
    Идентификатор : 2
    Формат : AC-3
    Формат/Информация : Audio Coding 3
    Расширение режима : CM (complete main)
    Параметр Endianness формата : Big
    Идентификатор кодека : A_AC3
    Продолжительность : 1 ч. 31 м.
    Вид битрейта : Постоянный
    Битрейт : 384 Кбит/сек
    Каналы : 6 каналов
    Расположение каналов : Front: L C R, Side: L R, LFE
    Частота : 48,0 КГц
    Частота кадров : 31,250 кадров/сек (1536 spf)
    Битовая глубина : 16 бит
    Метод сжатия : С потерями
    Размер потока : 251 Мбайт (13%)
    Заголовок : BadBajo
    Язык : Russian
    Default : Да
    Forced : Нет

    Аудио #2
    Идентификатор : 3
    Формат : AC-3
    Формат/Информация : Audio Coding 3
    Расширение режима : CM (complete main)
    Параметр Endianness формата : Big
    Идентификатор кодека : A_AC3
    Продолжительность : 1 ч. 31 м.
    Вид битрейта : Постоянный
    Битрейт : 384 Кбит/сек
    Каналы : 6 каналов
    Расположение каналов : Front: L C R, Side: L R, LFE
    Частота : 48,0 КГц
    Частота кадров : 31,250 кадров/сек (1536 spf)
    Битовая глубина : 16 бит
    Метод сжатия : С потерями
    Размер потока : 251 Мбайт (13%)
    Заголовок : Original
    Язык : English
    Default : Нет
    Forced : Нет

    Текст
    Идентификатор : 4
    Формат : UTF-8
    Идентификатор кодека : S_TEXT/UTF8
    Идентификатор кодека/Информация : UTF-8 Plain Text
    Язык : English
    Default : Нет
    Forced : Нет

    Меню
    00:00:00.000 : en:Opening Sequence
    00:05:37.000 : en:Echo Damage Report
    00:11:20.000 : en:In The Dark
    00:17:19.000 : en:Gravitational Portal
    00:23:50.000 : en:Restricted Area
    00:29:28.000 : en:Greatest Challenge Yet
    00:36:45.000 : en:Homesick
    00:41:01.000 : en:They Evacuated
    00:47:10.000 : en:Back Me Up
    00:53:24.000 : en:It's This Whole Place
    00:58:09.000 : en:Give Me The Box
    01:04:22.000 : en:Don't Go
    01:09:03.000 : en:Don't Trust Him
    01:15:02.000 : en:Where's The Box?
    01:21:13.000 : en:A Big Responsibility
    01:27:27.000 : en:End Credits
7.8 из 10
голосов: 4
5,4/10
5.6/10
Alik 15-06-2017, 08:43
Информация
Посетители, находящиеся в группе Гости, не могут оставлять комментарии к данной публикации.