Панель пользователя
Регистрация

Воспользуйтесь социальными сетями для входа на https://freerutor.com

vk odnoklassniki facebook mailru yandex google
Рекомендуем
Document
Счетчик
Голосуй за нас
Товары интернет магазина

Могучие рейнджеры (2017) BDRip 720p | iTunes

Могучие рейнджеры (2017) BDRip 720p |  iTunes
Участники торрент обмена
Сидов Пиров Скачали
9 1 1511
Характеристика
Размер Файлы
6.68 GB
Поделиться раздачей
Фильмы (720,1080,Blu-Ray)
Название: Могучие рейнджеры
Оригинальное название: Power Rangers
Жанр: фантастика, боевик, приключения
Выпущено: Канада, США / Lionsgate, Saban Brands, Walt Disney Pictures
Режиссер постановщик: Дин Израэлайт
В главных ролях: Элизабет Бэнкс, Брайан Крэнстон, Бекки Джи, Наоми Скотт, Дакре Монтгомери, Кэролайн Кейв, Билл Хейдер, Дэвид Денман, Луди Линь, Эмили Мэддисон
Краткое описание: Пять обычных старшеклассников узнают, что их маленький город Энджел Гроув и весь мир находятся на грани уничтожения инопланетной угрозой. Избранные судьбой наши герои быстро понимают, что они единственные, кто может спасти планету.
  • Видео данные: MPEG-4 AVC, 6532 kb/s, 1280x534
    Аудио данные: Russian: AC3, 384 kb/s (6 ch) / English: AC3, 640 kb/s (6 ch)
    Перевод: Дублированный [iTunes]
    Субтитры: Русские, английские
    Продолжительность: 02:03:58
  • Могучие рейнджеры (2017) BDRip 720p |  iTunes Могучие рейнджеры (2017) BDRip 720p |  iTunes Могучие рейнджеры (2017) BDRip 720p |  iTunes
  • Общее
    Уникальный идентификатор : 244182513523341235189400898203521048168 (0xB7B3D76A83BF5DED9BE1B9CC62AADE68)
    Полное имя : E:\Загрузки 2\Power.Rangers.2017.D.BDRip.72Op_EPIDEMZ.CO.mkv
    Формат : Matroska
    Версия формата : Version 2
    Размер файла : 1,68 Гбайт
    Продолжительность : 2 ч. 3 м.
    Общий поток : 1934 Кбит/сек
    Дата кодирования : UTC 2017-09-25 18:08:37
    Программа кодирования : mkvmerge v8.3.0 ('Over the Horizon') 64bit
    Библиотека кодирования : libebml v1.3.1 + libmatroska v1.4.2
    IsTruncated : Yes

    Видео
    Идентификатор : 1
    Формат : AVC
    Формат/Информация : Advanced Video Codec
    Профиль формата : High@L4.1
    Параметр CABAC формата : Да
    Параметр ReFrames формата : 12 кадров
    Идентификатор кодека : V_MPEG4/ISO/AVC
    Продолжительность : 2 ч. 3 м.
    Битрейт : 872 Кбит/сек
    Ширина : 1280 пикселей
    Высота : 534 пикселя
    Соотношение сторон : 2,40:1
    Режим частоты кадров : Постоянный
    Частота кадров : 23,976 (24000/1001) кадра/сек
    Цветовое пространство : YUV
    Субдискретизация насыщенности : 4:2:0
    Битовая глубина : 8 бит
    Тип развёртки : Прогрессивная
    Бит/(Пиксели*Кадры) : 0.053
    Размер потока : 773 Мбайт (45%)
    Библиотека кодирования : x264 core 150 r2829 d1fe6fd
    Настройки программы : cabac=1 / ref=12 / deblock=1:-3:-3 / analyse=0x3:0x133 / me=umh / subme=10 / psy=1 / psy_rd=1.00:0.00 / mixed_ref=1 / me_range=32 / chroma_me=1 / trellis=2 / 8x8dct=1 / cqm=0 / deadzone=21,11 / fast_pskip=0 / chroma_qp_offset=-2 / threads=6 / lookahead_threads=1 / sliced_threads=0 / nr=0 / decimate=0 / interlaced=0 / bluray_compat=0 / constrained_intra=0 / bframes=8 / b_pyramid=2 / b_adapt=2 / b_bias=0 / direct=3 / weightb=1 / open_gop=0 / weightp=2 / keyint=250 / keyint_min=23 / scenecut=40 / intra_refresh=0 / rc=crf / mbtree=0 / crf=15.5 / qcomp=0.60 / qpmin=0 / qpmax=69 / qpstep=4 / ip_ratio=1.40 / pb_ratio=1.30 / aq=3:0.80
    Язык : English
    Default : Да
    Forced : Нет

    Аудио #1
    Идентификатор : 2
    Формат : AC-3
    Формат/Информация : Audio Coding 3
    Параметр Endianness формата : Big
    Идентификатор кодека : A_AC3
    Продолжительность : 2 ч. 3 м.
    Вид битрейта : Постоянный
    Битрейт : 384 Кбит/сек
    Каналы : 6 каналов
    Расположение каналов : Front: L C R, Side: L R, LFE
    Частота : 48,0 КГц
    Частота кадров : 31,250 кадров/сек (1536 spf)
    Битовая глубина : 16 бит
    Метод сжатия : С потерями
    Размер потока : 341 Мбайт (20%)
    Язык : Russian
    ServiceKind/String : Complete Main
    Default : Да
    Forced : Нет

    Аудио #2
    Идентификатор : 3
    Формат : AC-3
    Формат/Информация : Audio Coding 3
    Параметр Endianness формата : Big
    Идентификатор кодека : A_AC3
    Продолжительность : 2 ч. 3 м.
    Вид битрейта : Постоянный
    Битрейт : 640 Кбит/сек
    Каналы : 6 каналов
    Расположение каналов : Front: L C R, Side: L R, LFE
    Частота : 48,0 КГц
    Частота кадров : 31,250 кадров/сек (1536 spf)
    Битовая глубина : 16 бит
    Метод сжатия : С потерями
    Размер потока : 568 Мбайт (33%)
    Язык : English
    ServiceKind/String : Complete Main
    Default : Нет
    Forced : Нет

    Текст #1
    Идентификатор : 4
    Формат : UTF-8
    Идентификатор кодека : S_TEXT/UTF8
    Идентификатор кодека/Информация : UTF-8 Plain Text
    Язык : Russian
    Default : Нет
    Forced : Нет

    Текст #2
    Идентификатор : 5
    Формат : PGS
    Режим смешивания : zlib
    Идентификатор кодека : S_HDMV/PGS
    Идентификатор кодека/Информация : Picture based subtitle format used on BDs/HD-DVDs
    Язык : English
    Default : Нет
    Forced : Нет

    Меню
    00:00:00.000 : en:00:00:00.000
    00:07:00.253 : en:00:07:00.253
    00:13:45.241 : en:00:13:45.241
    00:18:57.720 : en:00:18:57.720
    00:25:49.590 : en:00:25:49.590
    00:31:17.125 : en:00:31:17.125
    00:38:24.761 : en:00:38:24.761
    00:50:49.046 : en:00:50:49.046
    01:00:00.221 : en:01:00:00.221
    01:08:09.877 : en:01:08:09.877
    01:17:06.747 : en:01:17:06.747
    01:24:41.743 : en:01:24:41.743
    01:30:45.023 : en:01:30:45.023
    01:34:18.861 : en:01:34:18.861
    01:44:32.933 : en:01:44:32.933
    01:51:46.158 : en:01:51:46.158
5.5 из 10
голосов: 8
CinemaRelizer 25-09-2017, 22:44
Информация
Посетители, находящиеся в группе Гости, не могут оставлять комментарии к данной публикации.