Панель пользователя
Регистрация

Воспользуйтесь социальными сетями для входа на https://freerutor.com

vk odnoklassniki facebook mailru yandex google
Рекомендуем
Document
Счетчик
Пожертвование
Голосуй за нас
Товары интернет магазина
Document

Прикончи их всех (2017) BDRip 720p | Лицензия

Прикончи их всех (2017) BDRip 720p | Лицензия
Участники торрент обмена
Сидов Пиров Скачали
3 0 698
Характеристика
Размер Файлы
4.57 GB
Поделиться раздачей
Фильмы (720,1080,Blu-Ray)
Наименование: Прикончи их всех
Оригинальное наименование: Kill'em All
Произведено: США
Категория: боевик
Режиссер постановщик: Питер Малота
В главных ролях: Жан-Клод Ван Дамм, Петер Стормаре, Отем Ризер, Мария Кончита Алонсо, Дэниэл Бернхард, Кристофер Ван Варенберг, Джеймс П. Беннетт, Ганс Марреро, Пол Сэмпсон
Краткое описание: В обычную американскую больницу поступает необычный пациент, находящийся при смерти после массовой перестрелки. Бойня возобновляется, когда по его следу приходит группа вооружённых налётчиков. Оставшейся в живых свидетельнице - молодой медсестре Сюзанне - придётся иметь дело с агентами ФБР и участниками международного заговора.
  • Видео: MKV, 5412 kb/s, 1280x534
    Аудио: Russian / English: AC3, 640 kb/s (6 ch)
    Перевод: Профессиональный многоголосый [лицензия]
    Субтитры: Английские
    Продолжительность: 01:35:50
  • Прикончи их всех (2017) BDRip 720p | Лицензия Прикончи их всех (2017) BDRip 720p | Лицензия Прикончи их всех (2017) BDRip 720p | Лицензия
  • Общее
    Уникальный идентификатор : 194554362779074815011741729258517634483 (0x925DCEABC91B12BA8C56AA85A0211DB3)
    Полное имя : D:\загрузки\Kill'em.All.2017.P..BDRip.72Op.mkv
    Формат : Matroska
    Версия формата : Version 2
    Размер файла : 4,57 Гбайт
    Продолжительность : 1 ч. 35 м.
    Общий поток : 6828 Кбит/сек
    Дата кодирования : UTC 2017-06-16 10:33:47
    Программа кодирования : mkvmerge v8.3.0 ('Over the Horizon') 64bit
    Библиотека кодирования : libebml v1.3.1 + libmatroska v1.4.2

    Видео
    Идентификатор : 1
    Формат : AVC
    Формат/Информация : Advanced Video Codec
    Профиль формата : High@L4.1
    Параметр CABAC формата : Да
    Параметр ReFrames формата : 12 кадров
    Идентификатор кодека : V_MPEG4/ISO/AVC
    Продолжительность : 1 ч. 35 м.
    Битрейт : 5546 Кбит/сек
    Ширина : 1280 пикселей
    Высота : 534 пикселя
    Соотношение сторон : 2,40:1
    Соотношение сторон в оригинале : 2,40:1
    Режим частоты кадров : Постоянный
    Частота кадров : 23,976 (24000/1001) кадра/сек
    Цветовое пространство : YUV
    Субдискретизация насыщенности : 4:2:0
    Битовая глубина : 8 бит
    Тип развёртки : Прогрессивная
    Бит/(Пиксели*Кадры) : 0.338
    Размер потока : 3,71 Гбайт (81%)
    Библиотека кодирования : x264 core 148 r2762.20 f1807b7 VietHD_Custom
    Настройки программы : cabac=1 / ref=12 / deblock=1:-3:-3 / analyse=0x3:0x133 / me=umh / subme=10 / psy=1 / fade_compensate=0.00 / psy_rd=1.02:0.00 / mixed_ref=1 / me_range=24 / chroma_me=1 / trellis=2 / 8x8dct=1 / cqm=0 / deadzone=21,11 / fast_pskip=0 / chroma_qp_offset=-2 / threads=12 / lookahead_threads=2 / sliced_threads=0 / nr=0 / decimate=0 / interlaced=0 / bluray_compat=0 / constrained_intra=0 / fgo=0 / bframes=9 / b_pyramid=2 / b_adapt=2 / b_bias=0 / direct=3 / weightb=1 / open_gop=0 / weightp=2 / keyint=250 / keyint_min=23 / scenecut=40 / intra_refresh=0 / rc_lookahead=60 / rc=crf / mbtree=0 / crf=16.8000 / qcomp=0.65 / qpmin=0:0:0 / qpmax=69:69:69 / qpstep=4 / vbv_maxrate=62500 / vbv_bufsize=78125 / crf_max=0.0 / nal_hrd=none / filler=0 / ip_ratio=1.30 / pb_ratio=1.20 / aq=3:0.80 / aq-sensitivity=10.00 / aq-factor=1.00:1.00:1.00 / aq2=0 / aq3=0 / zones=336,528,crf=13
    Язык : English
    Default : Да
    Forced : Нет
    Цветовой диапазон : Limited
    Коэффициенты матрицы : BT.709

    Аудио #1
    Идентификатор : 4
    Формат : AC-3
    Формат/Информация : Audio Coding 3
    Параметр Endianness формата : Big
    Идентификатор кодека : A_AC3
    Продолжительность : 1 ч. 35 м.
    Вид битрейта : Постоянный
    Битрейт : 640 Кбит/сек
    Каналы : 6 каналов
    Расположение каналов : Front: L C R, Side: L R, LFE
    Частота : 48,0 КГц
    Частота кадров : 31,250 кадров/сек (1536 spf)
    Битовая глубина : 16 бит
    Метод сжатия : С потерями
    Размер потока : 439 Мбайт (9%)
    Язык : English
    ServiceKind/String : Complete Main
    Default : Нет
    Forced : Нет

    Аудио #2
    Идентификатор : 5
    Формат : AC-3
    Формат/Информация : Audio Coding 3
    Параметр Endianness формата : Big
    Идентификатор кодека : A_AC3
    Продолжительность : 1 ч. 35 м.
    Вид битрейта : Постоянный
    Битрейт : 640 Кбит/сек
    Каналы : 6 каналов
    Расположение каналов : Front: L C R, Side: L R, LFE
    Частота : 48,0 КГц
    Частота кадров : 31,250 кадров/сек (1536 spf)
    Битовая глубина : 16 бит
    Метод сжатия : С потерями
    Размер потока : 439 Мбайт (9%)
    ServiceKind/String : Complete Main
    Default : Нет
    Forced : Нет

    Текст #1
    Идентификатор : 2
    Формат : UTF-8
    Идентификатор кодека : S_TEXT/UTF8
    Идентификатор кодека/Информация : UTF-8 Plain Text
    Продолжительность : 1 ч. 28 м.
    Битрейт : 36 бит/сек
    ElementCount : 757
    Размер потока : 23,5 Кбайт (0%)
    Язык : English
    Default : Нет
    Forced : Нет

    Текст #2
    Идентификатор : 3
    Формат : UTF-8
    Идентификатор кодека : S_TEXT/UTF8
    Идентификатор кодека/Информация : UTF-8 Plain Text
    Продолжительность : 1 ч. 34 м.
    Битрейт : 44 бит/сек
    ElementCount : 1058
    Размер потока : 30,9 Кбайт (0%)
    Язык : English
    Default : Нет
    Forced : Нет

    Меню
    00:00:00.000 : en:00:00:00.000
    00:10:02.602 : en:00:10:02.602
    00:15:03.653 : en:00:15:03.653
    00:20:25.599 : en:00:20:25.599
    00:23:32.661 : en:00:23:32.661
    00:30:05.679 : en:00:30:05.679
    00:38:21.716 : en:00:38:21.716
    00:43:43.454 : en:00:43:43.454
    00:48:37.873 : en:00:48:37.873
    00:53:32.000 : en:00:53:32.000
    00:58:52.279 : en:00:58:52.279
    01:03:58.334 : en:01:03:58.334
    01:08:31.065 : en:01:08:31.065
    01:12:44.068 : en:01:12:44.068
    01:21:30.177 : en:01:21:30.177
    01:28:14.122 : en:01:28:14.122

4.1 из 10
голосов: 10
4.407 405 4.3 533
Похожие торренты Размер
  Прикончи их всех (2017) BDRip 1080p | Лицензия 7.69 GB
CinemaRelizer 16-06-2017, 15:01

mjjhec | 16-06-2017, 15:17 | Статус: Оффлайн

Может скриншоты соизволите добавить в раздачу?
Информация
Посетители, находящиеся в группе Гости, не могут оставлять комментарии к данной публикации.