Панель пользователя
Регистрация

Воспользуйтесь социальными сетями для входа на https://freerutor.com

vk odnoklassniki facebook mailru yandex google
Рекомендуем
Document
Счетчик
Пожертвование
Голосуй за нас
Товары интернет магазина
Document

Одарённая (2017) BDRip 720p | iTunes

Одарённая (2017) BDRip 720p | iTunes
Участники торрент обмена
Сидов Пиров Скачали
656 28 10543
Характеристика
Размер Файлы
3.69 GB
Релиз группа
Поделиться раздачей
Фильмы (720,1080,Blu-Ray)
Наименование: Одарённая
Оригинальное наименование: Gifted
Произведено: США
Категория: драма
Режиссер постановщик: Марк Уэбб
В главных ролях: Крис Эванс, МакКенна Грейс, Линдси Дункан, Дженни Слейт, Октавия Спенсер, Майкл Кендалл Каплан, Джон М. Джексон, Гленн Пламмер, Джон Финн, Элизабет Марвел
Краткое описание: Фрэнк Адлер живет в прибрежном городке во Флориде и воспитывает в одиночку свою необычайно одаренную племянницу Мэри. Но планы парня о спокойной школьной жизни для девочки рушатся, когда о математических способностях ребенка узнает грозная мать Фрэнка Эвелин. У бабушки свои представления о будущем внучки, и ради этого она готова даже разлучить Мэри с Фрэнком.
  • Видео данные: MPEG-4 AVC, 4200 kb/s, 1280x536
    Аудио данные: Русский (AC3, 6 ch, 384 Кбит/с), английский (AC3, 6 ch, 640 Кбит/с)
    Продолжительность: 01:41:10
    Перевод: Дублированный (iTunes)
    Субтитры: Русские, английские
  • Одарённая (2017) BDRip 720p | iTunes Одарённая (2017) BDRip 720p | iTunes Одарённая (2017) BDRip 720p | iTunes
  • Общее
    Уникальный идентификатор : 228352317259087194809396189395191405445 (0xABCB0E7B3CB30F36BEB16F48436D1B85)
    Полное имя : E:\Загрузки 2\Gifted.2017.D.BDRip.72Op.mkv
    Формат : Matroska
    Версия формата : Version 2
    Размер файла : 3,69 Гбайт
    Продолжительность : 1 ч. 41 м.
    Общий поток : 5219 Кбит/сек
    Дата кодирования : UTC 2017-07-24 22:04:00
    Программа кодирования : mkvmerge v7.8.0 ('River Man') 32bit built on Apr 3 2015 12:11:22
    Библиотека кодирования : libebml v1.3.1 + libmatroska v1.4.2

    Видео
    Идентификатор : 1
    Формат : AVC
    Формат/Информация : Advanced Video Codec
    Профиль формата : High@L4.1
    Параметр CABAC формата : Да
    Параметр ReFrames формата : 12 кадров
    Идентификатор кодека : V_MPEG4/ISO/AVC
    Продолжительность : 1 ч. 41 м.
    Битрейт : 4200 Кбит/сек
    Ширина : 1280 пикселей
    Высота : 536 пикселей
    Соотношение сторон : 2,40:1
    Режим частоты кадров : Постоянный
    Частота кадров : 23,976 (24000/1001) кадра/сек
    Цветовое пространство : YUV
    Субдискретизация насыщенности : 4:2:0
    Битовая глубина : 8 бит
    Тип развёртки : Прогрессивная
    Бит/(Пиксели*Кадры) : 0.255
    Размер потока : 2,89 Гбайт (78%)
    Библиотека кодирования : x264 core 152 r2851 ba24899
    Настройки программы : cabac=1 / ref=12 / deblock=1:-3:-3 / analyse=0x3:0x113 / me=umh / subme=11 / psy=1 / psy_rd=1.00:0.00 / mixed_ref=1 / me_range=32 / chroma_me=1 / trellis=2 / 8x8dct=1 / cqm=0 / deadzone=21,11 / fast_pskip=0 / chroma_qp_offset=-2 / threads=12 / lookahead_threads=3 / sliced_threads=0 / nr=0 / decimate=0 / interlaced=0 / bluray_compat=0 / constrained_intra=0 / bframes=12 / b_pyramid=2 / b_adapt=2 / b_bias=0 / direct=3 / weightb=1 / open_gop=1 / weightp=2 / keyint=240 / keyint_min=23 / scenecut=40 / intra_refresh=0 / rc_lookahead=40 / rc=2pass / mbtree=0 / bitrate=4200 / ratetol=1.0 / qcomp=0.60 / qpmin=0 / qpmax=69 / qpstep=4 / cplxblur=20.0 / qblur=0.5 / vbv_maxrate=50000 / vbv_bufsize=62500 / nal_hrd=none / filler=0 / ip_ratio=1.40 / pb_ratio=1.30 / aq=1:1.00
    Язык : English
    Default : Да
    Forced : Нет

    Аудио #1
    Идентификатор : 2
    Формат : AC-3
    Формат/Информация : Audio Coding 3
    Параметр Endianness формата : Big
    Идентификатор кодека : A_AC3
    Продолжительность : 1 ч. 41 м.
    Вид битрейта : Постоянный
    Битрейт : 384 Кбит/сек
    Каналы : 6 каналов
    Расположение каналов : Front: L C R, Side: L R, LFE
    Частота : 48,0 КГц
    Частота кадров : 31,250 кадров/сек (1536 spf)
    Битовая глубина : 16 бит
    Метод сжатия : С потерями
    Размер потока : 278 Мбайт (7%)
    Язык : Russian
    ServiceKind/String : Complete Main
    Default : Да
    Forced : Нет

    Аудио #2
    Идентификатор : 3
    Формат : AC-3
    Формат/Информация : Audio Coding 3
    Параметр Endianness формата : Big
    Идентификатор кодека : A_AC3
    Продолжительность : 1 ч. 41 м.
    Вид битрейта : Постоянный
    Битрейт : 640 Кбит/сек
    Каналы : 6 каналов
    Расположение каналов : Front: L C R, Side: L R, LFE
    Частота : 48,0 КГц
    Частота кадров : 31,250 кадров/сек (1536 spf)
    Битовая глубина : 16 бит
    Метод сжатия : С потерями
    Размер потока : 463 Мбайт (12%)
    Язык : English
    ServiceKind/String : Complete Main
    Default : Нет
    Forced : Нет

    Текст #1
    Идентификатор : 4
    Формат : UTF-8
    Идентификатор кодека : S_TEXT/UTF8
    Идентификатор кодека/Информация : UTF-8 Plain Text
    Заголовок : Full
    Язык : Russian
    Default : Нет
    Forced : Нет

    Текст #2
    Идентификатор : 5
    Формат : UTF-8
    Идентификатор кодека : S_TEXT/UTF8
    Идентификатор кодека/Информация : UTF-8 Plain Text
    Заголовок : Full
    Язык : English
    Default : Нет
    Forced : Нет

    Меню
    00:00:00.000 : en:00:00:00.000
    00:04:36.317 : en:00:04:36.317
    00:07:49.302 : en:00:07:49.302
    00:12:55.524 : en:00:12:55.524
    00:18:50.002 : en:00:18:50.002
    00:22:23.008 : en:00:22:23.008
    00:29:13.084 : en:00:29:13.084
    00:33:18.829 : en:00:33:18.829
    00:37:56.398 : en:00:37:56.398
    00:42:57.824 : en:00:42:57.824
    00:45:34.356 : en:00:45:34.356
    00:48:06.675 : en:00:48:06.675
    00:50:58.804 : en:00:50:58.804
    00:54:31.684 : en:00:54:31.684
    00:59:05.958 : en:00:59:05.958
    01:03:52.786 : en:01:03:52.786
    01:08:44.787 : en:01:08:44.787
    01:14:52.279 : en:01:14:52.279
    01:19:29.346 : en:01:19:29.346
    01:23:44.769 : en:01:23:44.769
    01:26:54.751 : en:01:26:54.751
    01:29:38.831 : en:01:29:38.831
    01:32:49.271 : en:01:32:49.271
    01:35:36.646 : en:01:35:36.646
4.3 из 10
голосов: 11
7.464 14273 7.7 16350
Похожие торренты Размер
  Одарённая (2017) BDRip 1080p | iTunes 7.57 GB
  Прикуп / The Take (2009) HDRip 1.93 GB
karta 25-07-2017, 01:08
Информация
Посетители, находящиеся в группе Гости, не могут оставлять комментарии к данной публикации.