Панель пользователя
Регистрация

Воспользуйтесь социальными сетями для входа на https://freerutor.com

vk odnoklassniki facebook mailru yandex google
Рекомендуем
Document
Счетчик
Товары интернет магазина
Document

Меч короля Артура (2017) BDRip 720p | Лицензия

Меч короля Артура (2017) BDRip 720p | Лицензия
Участники торрент обмена
Сидов Пиров Скачали
91 2 6615
Характеристика
Размер Файлы
4.78 GB
Релиз группа
Поделиться раздачей
Фильмы (720,1080,Blu-Ray)
Наименование: Меч короля Артура
Оригинальное наименование: King Arthur: Legend of the Sword
Произведено: США
Категория: фэнтези, боевик, драма, приключения
Режиссер постановщик: Гай Ричи
В главных ролях: Чарли Ханнэм, Астрид Берже-Фрисби, Джуд Лоу, Джимон Хонсу, Эрик Бана, Эйдан Гиллен, Фредди Фокс, Крэйг МакГинли, Том Ву, Кингсли Бен-Адир
Краткое описание: Молодой Артур околачивается на окраинах Лондиниума со своей бандой. Своим происхождением он совершенно не дорожит и не интересуется. Так он живёт до момента, когда судьба сводит его с волшебным мечом Экскалибуром. После этого Артур кардинально меняется - влюбляется, присоединяется к движению сопротивления и объединяет вокруг себя людей, чтобы свергнуть тирана Вортигерна, убившего родителей Артура и захватившего трон.
  • Видео данные: MPEG-4 AVC, 4150 Кбит/с, 1280x534
    Аудио данные: Русский (AC3, 6 ch, 448 Кбит/с), украинский (AC3, 2 ch, 192 Кбит/с), английский (AC3, 6 ch, 640 Кбит/с)
    Перевод: Дублированный [Лицензия]
    Субтитры: Русские (форсированные, полные), украинские (форсированные), английские (полные)
    Продолжительность: 02:06:13
  • Меч короля Артура (2017) BDRip 720p | Лицензия Меч короля Артура (2017) BDRip 720p | Лицензия Меч короля Артура (2017) BDRip 720p | Лицензия
  • x264 [info]: frame I:1915 Avg QP:15.13 size:121158
    x264 [info]: frame P:45314 Avg QP:18.86 size: 41524
    x264 [info]: frame B:134353 Avg QP:19.51 size: 13404
    x264 [info]: consecutive B-frames: 4.9% 4.8% 11.3% 18.9% 21.5% 26.7% 5.4% 2.7% 1.4% 0.7% 0.8% 0.8%

    Общее
    Уникальный идентификатор : 218987115576414690349608696084823516778 (0xA4BF62639B075F26A1583CD794A7A66A)
    Полное имя : E:\Загрузки 2\King.Arthur.Legend.of.the.Sword.2017.D.BDRip.720p.mkv
    Формат : Matroska
    Версия формата : Version 2
    Размер файла : 4,78 Гбайт
    Продолжительность : 2 ч. 6 м.
    Общий поток : 5417 Кбит/сек
    Дата кодирования : UTC 2017-08-16 14:28:17
    Программа кодирования : mkvmerge v7.8.0 ('River Man') 32bit built on Apr 3 2015 12:11:22
    Библиотека кодирования : libebml v1.3.1 + libmatroska v1.4.2

    Видео
    Идентификатор : 1
    Формат : AVC
    Формат/Информация : Advanced Video Codec
    Профиль формата : High@L4.1
    Параметр CABAC формата : Да
    Параметр ReFrames формата : 12 кадров
    Идентификатор кодека : V_MPEG4/ISO/AVC
    Продолжительность : 2 ч. 6 м.
    Битрейт : 4150 Кбит/сек
    Ширина : 1280 пикселей
    Высота : 534 пикселя
    Соотношение сторон : 2,40:1
    Режим частоты кадров : Постоянный
    Частота кадров : 23,976 (24000/1001) кадра/сек
    Цветовое пространство : YUV
    Субдискретизация насыщенности : 4:2:0
    Битовая глубина : 8 бит
    Тип развёртки : Прогрессивная
    Бит/(Пиксели*Кадры) : 0.253
    Размер потока : 3,55 Гбайт (74%)
    Библиотека кодирования : x264 core 152 r2851 ba24899
    Настройки программы : cabac=1 / ref=12 / deblock=1:-3:-3 / analyse=0x3:0x113 / me=umh / subme=10 / psy=1 / psy_rd=1.40:1.30 / mixed_ref=1 / me_range=32 / chroma_me=1 / trellis=2 / 8x8dct=1 / cqm=0 / deadzone=21,11 / fast_pskip=0 / chroma_qp_offset=-4 / threads=12 / lookahead_threads=3 / sliced_threads=0 / nr=0 / decimate=0 / interlaced=0 / bluray_compat=0 / constrained_intra=0 / bframes=11 / b_pyramid=2 / b_adapt=2 / b_bias=0 / direct=3 / weightb=1 / open_gop=0 / weightp=2 / keyint=240 / keyint_min=23 / scenecut=40 / intra_refresh=0 / rc_lookahead=40 / rc=2pass / mbtree=0 / bitrate=4150 / ratetol=1.0 / qcomp=0.60 / qpmin=0 / qpmax=69 / qpstep=4 / cplxblur=20.0 / qblur=0.5 / vbv_maxrate=50000 / vbv_bufsize=62500 / nal_hrd=none / filler=0 / ip_ratio=1.40 / pb_ratio=1.30 / aq=1:1.00
    Язык : English
    Default : Да
    Forced : Нет

    Аудио #1
    Идентификатор : 2
    Формат : AC-3
    Формат/Информация : Audio Coding 3
    Параметр Endianness формата : Big
    Идентификатор кодека : A_AC3
    Продолжительность : 2 ч. 6 м.
    Вид битрейта : Постоянный
    Битрейт : 448 Кбит/сек
    Каналы : 6 каналов
    Расположение каналов : Front: L C R, Side: L R, LFE
    Частота : 48,0 КГц
    Частота кадров : 31,250 кадров/сек (1536 spf)
    Битовая глубина : 16 бит
    Метод сжатия : С потерями
    Размер потока : 404 Мбайт (8%)
    Заголовок : Blu-ray EUR
    Язык : Russian
    ServiceKind/String : Complete Main
    Default : Да
    Forced : Нет

    Аудио #2
    Идентификатор : 3
    Формат : AC-3
    Формат/Информация : Audio Coding 3
    Параметр Endianness формата : Big
    Идентификатор кодека : A_AC3
    Продолжительность : 2 ч. 6 м.
    Вид битрейта : Постоянный
    Битрейт : 192 Кбит/сек
    Каналы : 2 канала
    Расположение каналов : Front: L R
    Частота : 48,0 КГц
    Частота кадров : 31,250 кадров/сек (1536 spf)
    Битовая глубина : 16 бит
    Метод сжатия : С потерями
    Размер потока : 173 Мбайт (4%)
    Заголовок : iTunes
    Язык : Ukrainian
    ServiceKind/String : Complete Main
    Default : Нет
    Forced : Нет

    Аудио #3
    Идентификатор : 4
    Формат : AC-3
    Формат/Информация : Audio Coding 3
    Параметр Endianness формата : Big
    Идентификатор кодека : A_AC3
    Продолжительность : 2 ч. 6 м.
    Вид битрейта : Постоянный
    Битрейт : 640 Кбит/сек
    Каналы : 6 каналов
    Расположение каналов : Front: L C R, Side: L R, LFE
    Частота : 48,0 КГц
    Частота кадров : 31,250 кадров/сек (1536 spf)
    Битовая глубина : 16 бит
    Метод сжатия : С потерями
    Размер потока : 578 Мбайт (12%)
    Заголовок : Original
    Язык : English
    ServiceKind/String : Complete Main
    Default : Нет
    Forced : Нет

    Текст #1
    Идентификатор : 5
    Формат : UTF-8
    Идентификатор кодека : S_TEXT/UTF8
    Идентификатор кодека/Информация : UTF-8 Plain Text
    Заголовок : Forced
    Язык : Russian
    Default : Да
    Forced : Нет

    Текст #2
    Идентификатор : 6
    Формат : UTF-8
    Идентификатор кодека : S_TEXT/UTF8
    Идентификатор кодека/Информация : UTF-8 Plain Text
    Заголовок : Forced
    Язык : Ukrainian
    Default : Нет
    Forced : Нет

    Текст #3
    Идентификатор : 7
    Формат : UTF-8
    Идентификатор кодека : S_TEXT/UTF8
    Идентификатор кодека/Информация : UTF-8 Plain Text
    Заголовок : Full
    Язык : Russian
    Default : Нет
    Forced : Нет

    Текст #4
    Идентификатор : 8
    Формат : UTF-8
    Идентификатор кодека : S_TEXT/UTF8
    Идентификатор кодека/Информация : UTF-8 Plain Text
    Заголовок : Full
    Язык : English
    Default : Нет
    Forced : Нет

    Меню
    00:00:00.000 : en:Chapter 1
    00:12:43.220 : en:Chapter 2
    00:21:05.346 : en:Chapter 3
    00:32:32.659 : en:Chapter 4
    00:43:09.378 : en:Chapter 5
    00:56:47.987 : en:Chapter 6
    01:06:48.545 : en:Chapter 7
    01:14:13.030 : en:Chapter 8
    01:23:44.394 : en:Chapter 9
    01:36:36.791 : en:Chapter 10
    01:46:57.243 : en:Chapter 11
    01:58:58.797 : en:Chapter 12
8.1 из 10
голосов: 25
karta 16-08-2017, 17:33

Mayki | 17-08-2017, 19:33 | Статус: Оффлайн

да.норм.кино :бля.четпассважыры тронулthreaten:

jjkl | 27-07-2017, 22:29 | Статус: Оффлайн

спасибо,фильм хрень полная главный герой и играть не пытается, как будто только что из ночного клуба вышел,Гай Ричи ты либо боевик снимай либо мистику , соединил все вместе бурда, какая то получилась.

hothooligan87_05 | 27-07-2017, 18:34 | Статус: Оффлайн

Это один из редких фильмов, где трейлер хуже самого фильма (я о том, что в большинстве трейлеров показывают самые интересные моменты,тут же наоборот, самые скучные), фильм хороший, интересный, затягивающий good
Информация
Посетители, находящиеся в группе Гости, не могут оставлять комментарии к данной публикации.