Панель пользователя
Регистрация

Воспользуйтесь социальными сетями для входа на https://freerutor.com

vk odnoklassniki facebook mailru yandex google
Рекомендуем
Document
Счетчик
Пожертвование
Голосуй за нас
Товары интернет магазина
Document

Почетный гражданин (2016) BDRip 720p | iTunes

Почетный гражданин (2016) BDRip 720p | iTunes
Участники торрент обмена
Сидов Пиров Скачали
1 0 306
Характеристика
Размер Файлы
5.70 GB
Поделиться раздачей
Фильмы (720,1080,Blu-Ray)
Наименование: Почетный гражданин
Оригинальное наименование: El ciudadano ilustre
Произведено: Аргентина, Испания
Категория: драма, комедия
Режиссер постановщик: Гастон Дюпра, Мариано Кон
В главных ролях: Оскар Мартинес, Дади Бриева, Андреа Фриджерио, Нора Навас, Мануэль Висенте, Марсело Д Андреа, Белен Шаванн, Густаво Гарсон, Хулиан Ларкьер Телларини, Эмма Риверо
Краткое описание: Лауреат Нобелевской премии по литературе, писатель Даниэль Мантовани - желчный и пресыщенный интеллектуал. В юности он покинул Аргентину и уже несколько десятилетий живёт в Европе. Каждый день он получает множество приглашений выступить в самых престижных аудиториях мира, но неизменно отвечает на них отказом. Однако когда ему приходит письмо из аргентинского городка Салас, где он родился и вырос, с предложением приехать и получить статус почётного гражданина города, он не выдерживает и в приступе неожиданной ностальгии отправляется на «малую родину».
  • Видео данные: MPEG-4 AVC, 4900 Кбит/с, 1280x690
    Аудио данные: Русский (AC3, 6 ch, 384 Кбит/с), испанский (DTS, 6 ch, 1510 Кбит/с)
    Перевод: Профессиональный многоголосый [iTunes]
    Продолжительность: 01:57:39
  • Почетный гражданин (2016) BDRip 720p | iTunes Почетный гражданин (2016) BDRip 720p | iTunes Почетный гражданин (2016) BDRip 720p | iTunes
  • Общее
    Уникальный идентификатор : 180804480449547057634783862622174135344 (0x8805AD21D8DC406E8689A553E5AD4430)
    Полное имя : E:\Загрузки 2\Pochetniy.Gragdanin.2016.P.BDRip.72OP_EPIDEMZ.CO.mkv
    Формат : Matroska
    Версия формата : Version 2
    Размер файла : 5,70 Гбайт
    Продолжительность : 1 ч. 57 м.
    Общий поток : 6931 Кбит/сек
    Название фильма : The Distinguished Citizen 2016 720p BluRay DTS x264-HDS
    Дата кодирования : UTC 2017-07-20 18:09:50
    Программа кодирования : mkvmerge v8.3.0 ('Over the Horizon') 64bit
    Библиотека кодирования : libebml v1.3.1 + libmatroska v1.4.2

    Видео
    Идентификатор : 1
    Формат : AVC
    Формат/Информация : Advanced Video Codec
    Профиль формата : High@L4.1
    Параметр CABAC формата : Да
    Параметр ReFrames формата : 9 кадров
    Идентификатор кодека : V_MPEG4/ISO/AVC
    Продолжительность : 1 ч. 57 м.
    Битрейт : 5035 Кбит/сек
    Ширина : 1280 пикселей
    Высота : 690 пикселей
    Соотношение сторон : 1,85:1
    Режим частоты кадров : Постоянный
    Частота кадров : 24,000 кадра/сек
    Цветовое пространство : YUV
    Субдискретизация насыщенности : 4:2:0
    Битовая глубина : 8 бит
    Тип развёртки : Прогрессивная
    Бит/(Пиксели*Кадры) : 0.238
    Размер потока : 4,14 Гбайт (73%)
    Заголовок : 环环@HDSky
    Библиотека кодирования : x264 core 148 r2705+45 bdacf7a 7mod [8-bit@all X86_64]
    Настройки программы : cabac=1 / ref=9 / deblock=1:-3:-3 / analyse=0x3:0x113 / me=umh / subme=11 / psy=1 / fade_compensate=0.00 / psy_rd=1.00:0.05 / mixed_ref=1 / me_range=32 / chroma_me=1 / trellis=2 / 8x8dct=1 / cqm=0 / deadzone=21,11 / fast_pskip=0 / chroma_qp_offset=-2 / threads=24 / lookahead_threads=4 / sliced_threads=0 / nr=0 / decimate=1 / interlaced=0 / bluray_compat=0 / constrained_intra=0 / fgo=0 / bframes=8 / b_pyramid=2 / b_adapt=2 / b_bias=0 / direct=3 / weightb=1 / open_gop=0 / weightp=2 / keyint=250 / keyint_min=24 / scenecut=40 / intra_refresh=0 / rc=crf / mbtree=0 / crf=17.0000 / qcomp=0.60 / qpmin=0:0:0 / qpmax=69:69:69 / qpstep=4 / ip_ratio=1.40 / pb_ratio=1.30 / aq=4:0.90 / aq-sensitivity=10.00 / aq-factor=1.00:1.00:1.00 / aq2=0 / aq3=0
    Default : Да
    Forced : Нет

    Аудио #1
    Идентификатор : 2
    Формат : AC-3
    Формат/Информация : Audio Coding 3
    Параметр Endianness формата : Big
    Идентификатор кодека : A_AC3
    Продолжительность : 1 ч. 57 м.
    Вид битрейта : Постоянный
    Битрейт : 384 Кбит/сек
    Каналы : 6 каналов
    Расположение каналов : Front: L C R, Side: L R, LFE
    Частота : 48,0 КГц
    Частота кадров : 31,250 кадров/сек (1536 spf)
    Битовая глубина : 16 бит
    Метод сжатия : С потерями
    Размер потока : 323 Мбайт (6%)
    Язык : Russian
    ServiceKind/String : Complete Main
    Default : Да
    Forced : Нет

    Аудио #2
    Идентификатор : 3
    Формат : DTS
    Формат/Информация : Digital Theater Systems
    Режим : 16
    Параметр Endianness формата : Big
    Идентификатор кодека : A_DTS
    Продолжительность : 1 ч. 57 м.
    Вид битрейта : Постоянный
    Битрейт : 1509 Кбит/сек
    Каналы : 6 каналов
    Расположение каналов : Front: L C R, Side: L R, LFE
    Частота : 48,0 КГц
    Частота кадров : 93,750 кадра/сек (512 spf)
    Битовая глубина : 16 бит
    Метод сжатия : С потерями
    Размер потока : 1,24 Гбайт (22%)
    Заголовок : Spanish
    Язык : Spanish
    Default : Нет
    Forced : Нет
4.7 из 10
голосов: 6
6.674 699 7.5 2642
CinemaRelizer 20-07-2017, 22:30
Информация
Посетители, находящиеся в группе Гости, не могут оставлять комментарии к данной публикации.