Панель пользователя
Регистрация

Воспользуйтесь социальными сетями для входа на https://freerutor.com

vk odnoklassniki facebook mailru yandex google
Рекомендуем
Document
Счетчик
Голосуй за нас
Популярное
загрузка...
Товары интернет магазина
Document

SuperАлиби (2017) BDRip 720p | iTunes

SuperАлиби (2017) BDRip  720p | iTunes
Участники торрент обмена
Сидов Пиров Скачали
18 2 380
Характеристика
Размер Файлы
4.46 GB
Релиз группа
Поделиться раздачей
Фильмы (720,1080,Blu-Ray)
Наименование: SuperАлиби
Оригинальное наименование: Alibi.com
Произведено: Франция
Категория: комедия
Режиссер постановщик: Филипп Лашо
В главных ролях: Филипп Лашо, Элоди Фонтан, Жюльен Аррути, Тарек Будали, Дидье Бурдон, Натали Бай, Науэлл Мадани, Меди Садун, Венсан Дезанья, Элис Дюфур
Краткое описание: Нужно алиби, чтобы втайне от супруги спокойно отдохнуть с друзьями на футболе? Вам поможет агентство по созданию алиби. Нужна отмазка в школе? Обращайтесь! Решили отдохнуть от семьи в выходные? Мы на связи! Этот стартап Грега и его команды уже получил оглушительный успех...
Но когда он встречает Фло, девушку своей мечты, которая презирает всех лгунов и изменщиков, ему приходится скрывать род своей деятельности. Паутина лжи Грега становится настолько сложной, что даже лучшему лжецу в мире придется изрядно изловчиться, чтобы выкрутиться из нее...
  • Видео данные: MPEG-4 AVC, 5259 Кбит/с, 1280x688
    Аудио данные: Русский (AC3, 6 ch, 384 Кбит/с), французский (DTS, 6 ch, 1510 Кбит/с)
    Перевод: Дублированный [iTunes]
    Продолжительность: 01:29:10
  • SuperАлиби (2017) BDRip  720p | iTunes SuperАлиби (2017) BDRip  720p | iTunes SuperАлиби (2017) BDRip  720p | iTunes
  • Общее
    Уникальный идентификатор : 242246046876120232358067539765424698470 (0xB63EE43D32D2970CBEA8663DBD323466)
    Полное имя : D:\загрузки\Alibi.com.2017.D.BDRip.720p.mkv
    Формат : Matroska
    Версия формата : Version 2
    Размер файла : 4,46 Гбайт
    Продолжительность : 1 ч. 29 м.
    Общий поток : 7154 Кбит/сек
    Дата кодирования : UTC 2017-06-16 07:37:00
    Программа кодирования : mkvmerge v7.8.0 ('River Man') 32bit built on Apr 3 2015 12:11:22
    Библиотека кодирования : libebml v1.3.1 + libmatroska v1.4.2

    Видео
    Идентификатор : 1
    Формат : AVC
    Формат/Информация : Advanced Video Codec
    Профиль формата : High@L4.1
    Параметр CABAC формата : Да
    Параметр ReFrames формата : 9 кадров
    Идентификатор кодека : V_MPEG4/ISO/AVC
    Продолжительность : 1 ч. 29 м.
    Битрейт : 5259 Кбит/сек
    Ширина : 1280 пикселей
    Высота : 688 пикселей
    Соотношение сторон : 1,85:1
    Режим частоты кадров : Постоянный
    Частота кадров : 24,000 кадра/сек
    Цветовое пространство : YUV
    Субдискретизация насыщенности : 4:2:0
    Битовая глубина : 8 бит
    Тип развёртки : Прогрессивная
    Бит/(Пиксели*Кадры) : 0.249
    Размер потока : 3,19 Гбайт (72%)
    Библиотека кодирования : x264 core 146 r2538 121396c
    Настройки программы : cabac=1 / ref=9 / deblock=1:-3:-3 / analyse=0x3:0x133 / me=umh / subme=10 / psy=1 / psy_rd=1.00:0.00 / mixed_ref=1 / me_range=32 / chroma_me=0 / trellis=2 / 8x8dct=1 / cqm=0 / deadzone=21,11 / fast_pskip=0 / chroma_qp_offset=-2 / threads=12 / lookahead_threads=1 / sliced_threads=0 / nr=0 / decimate=0 / interlaced=0 / bluray_compat=0 / constrained_intra=0 / bframes=10 / b_pyramid=2 / b_adapt=1 / b_bias=0 / direct=3 / weightb=1 / open_gop=0 / weightp=2 / keyint=240 / keyint_min=24 / scenecut=40 / intra_refresh=0 / rc=2pass / mbtree=0 / bitrate=5259 / ratetol=1.0 / qcomp=0.60 / qpmin=0 / qpmax=69 / qpstep=4 / cplxblur=20.0 / qblur=0.5 / ip_ratio=1.40 / pb_ratio=1.30 / aq=1:1.00
    Язык : French
    Default : Да
    Forced : Нет

    Аудио #1
    Идентификатор : 2
    Формат : AC-3
    Формат/Информация : Audio Coding 3
    Параметр Endianness формата : Big
    Идентификатор кодека : A_AC3
    Продолжительность : 1 ч. 29 м.
    Вид битрейта : Постоянный
    Битрейт : 384 Кбит/сек
    Каналы : 6 каналов
    Расположение каналов : Front: L C R, Side: L R, LFE
    Частота : 48,0 КГц
    Частота кадров : 31,250 кадров/сек (1536 spf)
    Битовая глубина : 16 бит
    Метод сжатия : С потерями
    Размер потока : 245 Мбайт (5%)
    Заголовок : iTunes
    Язык : Russian
    ServiceKind/String : Complete Main
    Default : Да
    Forced : Нет

    Аудио #2
    Идентификатор : 3
    Формат : DTS
    Формат/Информация : Digital Theater Systems
    Режим : 16
    Параметр Endianness формата : Big
    Идентификатор кодека : A_DTS
    Продолжительность : 1 ч. 29 м.
    Вид битрейта : Постоянный
    Битрейт : 1509 Кбит/сек
    Каналы : 6 каналов
    Расположение каналов : Front: L C R, Side: L R, LFE
    Частота : 48,0 КГц
    Частота кадров : 93,750 кадра/сек (512 spf)
    Битовая глубина : 24 бит
    Метод сжатия : С потерями
    Размер потока : 962 Мбайт (21%)
    Язык : French
    Default : Нет
    Forced : Нет

    Меню
    00:00:00.000 : en:Chapter 1
    00:07:35.332 : en:Chapter 2
    00:15:44.207 : en:Chapter 3
    00:20:42.583 : en:Chapter 4
    00:28:32.500 : en:Chapter 5
    00:36:59.291 : en:Chapter 6
    00:43:03.208 : en:Chapter 7
    00:53:31.833 : en:Chapter 8
    01:00:57.458 : en:Chapter 9
    01:07:43.250 : en:Chapter 10
    01:16:11.166 : en:Chapter 11
    01:21:13.707 : en:Chapter 12
9.8 из 10
голосов: 4
6,3/10
6.7/10
karta 16-06-2017, 10:52
Информация
Посетители, находящиеся в группе Гости, не могут оставлять комментарии к данной публикации.