Панель пользователя
Регистрация

Воспользуйтесь социальными сетями для входа на https://freerutor.com

vk odnoklassniki facebook mailru yandex google
Рекомендуем
Document
Счетчик
Голосуй за нас
Товары интернет магазина
Document

Патерсон (2016) BDRip 720p | Лицензия

Патерсон (2016) BDRip 720p | Лицензия
Участники торрент обмена
Сидов Пиров Скачали
8 0 139
Характеристика
Размер Файлы
6.18 GB
Поделиться раздачей
Фильмы (720,1080,Blu-Ray)
Наименование: Патерсон
Оригинальное наименование: Paterson
Произведено: США, Франция, Германия
Категория: драма, мелодрама, комедия
Режиссер постановщик: Джим Джармуш
В главных ролях: Адам Драйвер, Голшифте Фарахани, Ризван Манжи, Доминик Лириано, Джейден Майкл, Бэрри Шебака Хенли, Тревор Пархэм, Трой Пархэм, Брайан МакКарти
Краткое описание: Жизнь Патерсона - сплошная романтика: он работает водителем автобуса в городе Патерсон, штат Нью-Джерси, а в свободное время пишет стихи для любимой жены Лоры. Патерсон облачает красоту повседневности в стихи и встречает поэтов повсюду - такова магия города - родины поэтов Аллена Гинзберга и Уильяма Карлоса Уильямса. Патерсон пишет в стол и даже не мечтает публиковаться, однако одно маленькое событие меняет его планы.
  • Видео: MPEG-4 AVC, 6200 Кбит/с, 1280x692
    Аудио: Русский, английский (AC3, 6 ch, 640 Кбит/с)
    Перевод: Дублированный (Лицензия)
    Субтитры: Русские, английские
    Продолжительность: 01:58:11
  • Патерсон (2016) BDRip 720p | Лицензия Патерсон (2016) BDRip 720p | Лицензия Патерсон (2016) BDRip 720p | Лицензия
  • Общее
    Уникальный идентификатор : 215419473115560469255365427324773810685 (0xA210480906DBC938A873AB767C1941FD)
    Полное имя : X:�0000.2016.D.BDRip.720p.mkv
    Формат : Matroska
    Версия формата : Version 2
    Размер файла : 6,18 Гбайт
    Продолжительность : 1 ч. 58 м.
    Общий поток : 7484 Кбит/сек
    Дата кодирования : UTC 2017-07-15 19:12:36
    Программа кодирования : mkvmerge v7.8.0 ('River Man') 32bit built on Apr 3 2015 12:11:22
    Библиотека кодирования : libebml v1.3.1 + libmatroska v1.4.2

    Видео
    Идентификатор : 1
    Формат : AVC
    Формат/Информация : Advanced Video Codec
    Профиль формата : High@L4.1
    Параметр CABAC формата : Да
    Параметр ReFrames формата : 9 кадров
    Идентификатор кодека : V_MPEG4/ISO/AVC
    Продолжительность : 1 ч. 58 м.
    Битрейт : 6200 Кбит/сек
    Ширина : 1280 пикселей
    Высота : 692 пикселя
    Соотношение сторон : 1,85:1
    Режим частоты кадров : Постоянный
    Частота кадров : 23,976 (24000/1001) кадра/сек
    Цветовое пространство : YUV
    Субдискретизация насыщенности : 4:2:0
    Битовая глубина : 8 бит
    Тип развёртки : Прогрессивная
    Бит/(Пиксели*Кадры) : 0.292
    Размер потока : 5,00 Гбайт (81%)
    Библиотека кодирования : x264 core 148 r2744 b97ae06
    Настройки программы : cabac=1 / ref=9 / deblock=1:-3:-3 / analyse=0x3:0x133 / me=umh / subme=11 / psy=1 / psy_rd=1.05:0.00 / mixed_ref=1 / me_range=30 / chroma_me=1 / trellis=2 / 8x8dct=1 / cqm=0 / deadzone=21,11 / fast_pskip=0 / chroma_qp_offset=-2 / threads=12 / lookahead_threads=2 / sliced_threads=0 / slices=4 / nr=0 / decimate=0 / interlaced=0 / bluray_compat=0 / constrained_intra=0 / bframes=9 / b_pyramid=2 / b_adapt=2 / b_bias=0 / direct=3 / weightb=1 / open_gop=0 / weightp=2 / keyint=250 / keyint_min=23 / scenecut=40 / intra_refresh=0 / rc_lookahead=40 / rc=2pass / mbtree=0 / bitrate=6200 / ratetol=1.0 / qcomp=0.60 / qpmin=0 / qpmax=51 / qpstep=4 / cplxblur=20.0 / qblur=0.5 / vbv_maxrate=50000 / vbv_bufsize=62500 / nal_hrd=none / filler=0 / ip_ratio=1.20 / pb_ratio=1.20 / aq=3:0.85 / zones=1,4637,b=1.8
    Язык : English
    Default : Да
    Forced : Нет
    Цветовой диапазон : Limited
    Коэффициенты матрицы : BT.709

    Аудио #1
    Идентификатор : 5
    Формат : AC-3
    Формат/Информация : Audio Coding 3
    Параметр Endianness формата : Big
    Идентификатор кодека : A_AC3
    Продолжительность : 1 ч. 58 м.
    Вид битрейта : Постоянный
    Битрейт : 640 Кбит/сек
    Каналы : 6 каналов
    Расположение каналов : Front: L C R, Side: L R, LFE
    Частота : 48,0 КГц
    Частота кадров : 31,250 кадров/сек (1536 spf)
    Битовая глубина : 16 бит
    Метод сжатия : С потерями
    Размер потока : 541 Мбайт (9%)
    Язык : Russian
    ServiceKind/String : Complete Main
    Default : Да
    Forced : Нет

    Аудио #2
    Идентификатор : 6
    Формат : AC-3
    Формат/Информация : Audio Coding 3
    Параметр Endianness формата : Big
    Идентификатор кодека : A_AC3
    Продолжительность : 1 ч. 58 м.
    Вид битрейта : Постоянный
    Битрейт : 640 Кбит/сек
    Каналы : 6 каналов
    Расположение каналов : Front: L C R, Side: L R, LFE
    Частота : 48,0 КГц
    Частота кадров : 31,250 кадров/сек (1536 spf)
    Битовая глубина : 16 бит
    Метод сжатия : С потерями
    Размер потока : 541 Мбайт (9%)
    Язык : English
    ServiceKind/String : Complete Main
    Default : Нет
    Forced : Нет

    Текст #1
    Идентификатор : 2
    Формат : UTF-8
    Идентификатор кодека : S_TEXT/UTF8
    Идентификатор кодека/Информация : UTF-8 Plain Text
    Заголовок : full
    Язык : Russian
    Default : Нет
    Forced : Нет

    Текст #2
    Идентификатор : 3
    Формат : UTF-8
    Идентификатор кодека : S_TEXT/UTF8
    Идентификатор кодека/Информация : UTF-8 Plain Text
    Заголовок : full
    Язык : English
    Default : Нет
    Forced : Нет

    Текст #3
    Идентификатор : 4
    Формат : UTF-8
    Идентификатор кодека : S_TEXT/UTF8
    Идентификатор кодека/Информация : UTF-8 Plain Text
    Заголовок : SDH
    Язык : English
    Default : Нет
    Forced : Нет

    Меню
    00:00:00.000 : en:00:00:00.000
    00:15:48.239 : en:00:15:48.239
    00:35:05.562 : en:00:35:05.562
    00:46:02.051 : en:00:46:02.051
    01:07:35.635 : en:01:07:35.635
    01:24:19.221 : en:01:24:19.221
    01:37:07.321 : en:01:37:07.321
    01:53:10.283 : en:01:53:10.283
5.1 из 10
голосов: 7
foster720p 15-07-2017, 22:18
Информация
Посетители, находящиеся в группе Гости, не могут оставлять комментарии к данной публикации.