Панель пользователя
Регистрация

Воспользуйтесь социальными сетями для входа на https://freerutor.com

vk odnoklassniki facebook mailru yandex google
Рекомендуем
загрузка...
Счетчик
Голосуй за нас
Популярное
Товары интернет магазина

Большой собачий побег (2016) BDRip-AVC | Лицензия | R.G.Resident

Большой собачий побег (2016) BDRip-AVC | Лицензия | R.G.Resident
Участники торрент обмена
Сидов Пиров Скачали
9 1 750
Характеристика
Размер Файлы
2.16 GB
Релиз группа
Поделиться раздачей
Мультфильмы
Наименование: Большой собачий побег
Оригинальное наименование: Ozzy
Категория: мультфильм
Произведено: Канада, Испания
Режиссер постановщик: Альберто Родригез , Начо Ла Каза
В главных ролях: Гильермо Ромеро, Дэни Ровира, Хосе Мота, Мишель Хеннер, Карлос Аресес, Фернандо Те*censored*, Эктор Кантолья, Хуан Фернандес, Эльза Патаки
Краткое описание: Жизнь беспечного бигля Оззи переворачивается с лап на голову, когда, отправляясь в отпуск, семья Мартинов отдает его в элитный спа-отель для собак. Но хозяева не могли и представить, что это всего лишь ловушка, а их любимец окажется в настоящей собачьей тюрьме. Чтобы прорваться через супер-систему охраны и злющих сторожевых псов, Оззи вместе с такими же бедолагами, как он, должен будет спланировать самый хитроумный и дерзкий побег в истории.
  • Видео данные: MPEG-4 AVC, 2957 Кбит/с, 1024x576
    Аудио данные: Русский (AC3, 6 ch, 448 Кбит/с)
    Перевод: Дубляж - [Лицензия]
    Продолжительность: 01:30:44
  • Большой собачий побег (2016) BDRip-AVC | Лицензия | R.G.Resident Большой собачий побег (2016) BDRip-AVC | Лицензия | R.G.Resident Большой собачий побег (2016) BDRip-AVC | Лицензия | R.G.Resident
  • General
    Unique ID : 203466657604196680096111981175181762527 (0x991240BB32F48E61BED0D4F41ABD5FDF)
    Complete name : D:downloadOZZY.2016.BDRip-AVC by schultz R.G.Resident.mkv
    Format : Matroska
    Format version : Version 4 / Version 2
    File size : 2.16 GiB
    Duration : 1 h 30 min
    Overall bit rate : 3 405 kb/s
    Encoded date : UTC 2017-01-14 02:08:57
    Writing application : mkvmerge v8.9.0 ('Father Daughter') 64bit
    Writing library : libebml v1.3.3 + libmatroska v1.4.4

    Video
    ID : 1
    Format : AVC
    Format/Info : Advanced Video Codec
    Format profile : High@L4.1
    Format settings, CABAC : Yes
    Format settings, ReFrames : 12 frames
    Codec ID : V_MPEG4/ISO/AVC
    Duration : 1 h 30 min
    Bit rate : 2 957 kb/s
    Width : 1 024 pixels
    Height : 576 pixels
    Display aspect ratio : 16:9
    Frame rate mode : Constant
    Frame rate : 24.000 FPS
    Color space : YUV
    Chroma subsampling : 4:2:0
    Bit depth : 8 bits
    Scan type : Progressive
    Bits/(Pixel*Frame) : 0.209
    Stream size : 1.87 GiB (87%)
    Writing library : x264 core 146 r2538 121396c
    Encoding settings : cabac=1 / ref=12 / deblock=1:-3:-3 / analyse=0x3:0x113 / me=umh / subme=11 / psy=1 / psy_rd=1.00:0.00 / mixed_ref=1 / me_range=48 / chroma_me=1 / trellis=2 / 8x8dct=1 / cqm=0 / deadzone=21,11 / fast_pskip=0 / chroma_qp_offset=-2 / threads=12 / lookahead_threads=3 / sliced_threads=0 / nr=0 / decimate=0 / interlaced=0 / bluray_compat=0 / constrained_intra=0 / bframes=11 / b_pyramid=2 / b_adapt=2 / b_bias=0 / direct=3 / weightb=1 / open_gop=0 / weightp=2 / keyint=240 / keyint_min=24 / scenecut=40 / intra_refresh=0 / rc_lookahead=40 / rc=2pass / mbtree=1 / bitrate=2957 / ratetol=1.0 / qcomp=0.60 / qpmin=0 / qpmax=69 / qpstep=4 / cplxblur=20.0 / qblur=0.5 / vbv_maxrate=50000 / vbv_bufsize=62500 / nal_hrd=none / filler=0 / ip_ratio=1.40 / aq=1:1.00
    Language : English
    Default : Yes
    Forced : No

    Audio
    ID : 2
    Format : AC-3
    Format/Info : Audio Coding 3
    Mode extension : CM (complete main)
    Format settings, Endianness : Big
    Codec ID : A_AC3
    Duration : 1 h 30 min
    Bit rate mode : Constant
    Bit rate : 448 kb/s
    Channel(s) : 6 channels
    Channel positions : Front: L C R, Side: L R, LFE
    Sampling rate : 48.0 kHz
    Frame rate : 31.250 FPS (1536 spf)
    Compression mode : Lossy
    Stream size : 291 MiB (13%)
    Language : Russian
    Default : Yes
    Forced : No

    Menu
    00:00:00.000 : en:Chapter 1
    00:00:40.666 : en:Chapter 2
    00:09:41.125 : en:Chapter 3
    00:22:08.000 : en:Chapter 4
    00:32:50.458 : en:Chapter 5
    00:44:08.541 : en:Chapter 6
    00:58:01.791 : en:Chapter 7
    01:08:12.000 : en:Chapter 8
    01:19:27.041 : en:Chapter 9
7.3 из 10
голосов: 4
/10
/10
schultz 14-01-2017, 05:50
Информация
Посетители, находящиеся в группе Гости, не могут оставлять комментарии к данной публикации.