Панель пользователя
Регистрация

Воспользуйтесь социальными сетями для входа на https://freerutor.com

vk odnoklassniki facebook mailru yandex google
Рекомендуем
Document
Счетчик
Голосуй за нас
Популярное
загрузка...
Товары интернет магазина
загрузка...

Бен-Гур (2016) BDRip-AVC | Лицензия

Бен-Гур (2016) BDRip-AVC | Лицензия
Участники торрент обмена
Сидов Пиров Скачали
8 0 1782
Характеристика
Размер Файлы
2.62 GB
Релиз группа
Поделиться раздачей
Фильмы (AVC)
Наименование: Бен-Гур
Оригинальное наименование: Ben-Hur
Категория: Боевик, драма, приключения
Произведено: США / Metro-Goldwyn-Mayer, Paramount Pictures
Режиссер постановщик: Тимур Бекмамбетов
В главных ролях: Джек Хьюстон, Тоби Кеббелл, Родриго Санторо, Назанин Бониади, Айелет Зурер, Йохан Филип Асбек, София Блэк-Д Элиа, Морган Фриман, Марван Кензари, Мойзес Ариас
Краткое описание: История Бен-Гура, потомка знатного иудейского рода, который был предан своим лучшим другом-римлянином. Проведя много лет в рабстве на римских галерах, Бен-Гур в итоге получает возможность вернуться на родину и отомстить обидчику.
  • Видео данные: MPEG-4 AVC, 2149 Кбит/с, 1024x426
    Аудио данные: Русский, английский (AC3, 6 ch, 448 Кбит/с)
    Перевод: Дублированный [Лицензия]
    Субтитры: Русские, английские, украинские
    Продолжительность: 02:03:19
  • Бен-Гур (2016) BDRip-AVC | Лицензия Бен-Гур (2016) BDRip-AVC | Лицензия Бен-Гур (2016) BDRip-AVC | Лицензия
  • General
    Unique ID : 204380614367001685966410511429294918535 (0x99C2464758CC9549A3B8FA025DD48B87)
    Complete name : D:Ben-gur.2016.D.CEE.BDRip.AVC.ExKinoRay.mkv
    Format : Matroska
    Format version : Version 2
    File size : 2.62 GiB
    Duration : 2 h 3 min
    Overall bit rate : 3 041 kb/s
    Movie name : Ben-Gur (2016) from ExKinoRay
    Encoded date : UTC 2017-01-13 06:06:45
    Writing application : mkvmerge v7.6.0 ('Garden of Dreams') 32bit built on Feb 11 2015 00:18:47
    Writing library : libebml v1.3.1 + libmatroska v1.4.2

    Video
    ID : 1
    Format : AVC
    Format/Info : Advanced Video Codec
    Format profile : High@L4.1
    Format settings, CABAC : Yes
    Format settings, ReFrames : 12 frames
    Codec ID : V_MPEG4/ISO/AVC
    Duration : 2 h 3 min
    Bit rate : 2 149 kb/s
    Width : 1 024 pixels
    Height : 426 pixels
    Display aspect ratio : 2.40:1
    Frame rate mode : Constant
    Frame rate : 23.976 (24000/1001) FPS
    Color space : YUV
    Chroma subsampling : 4:2:0
    Bit depth : 8 bits
    Scan type : Progressive
    Bits/(Pixel*Frame) : 0.205
    Stream size : 1.80 GiB (69%)
    Title : Enigma
    Writing library : x264 core 144 r2525 40bb568
    Encoding settings : cabac=1 / ref=12 / deblock=1:-2:-2 / analyse=0x3:0x113 / me=umh / subme=10 / psy=1 / psy_rd=1.05:0.10 / mixed_ref=1 / me_range=32 / chroma_me=1 / trellis=2 / 8x8dct=1 / cqm=0 / deadzone=21,11 / fast_pskip=1 / chroma_qp_offset=-3 / threads=12 / lookahead_threads=3 / sliced_threads=0 / nr=0 / decimate=1 / interlaced=0 / bluray_compat=0 / constrained_intra=0 / bframes=12 / b_pyramid=2 / b_adapt=2 / b_bias=0 / direct=3 / weightb=1 / open_gop=0 / weightp=2 / keyint=240 / keyint_min=23 / scenecut=40 / intra_refresh=0 / rc=2pass / mbtree=0 / bitrate=2149 / ratetol=1.0 / qcomp=0.65 / qpmin=0 / qpmax=51 / qpstep=4 / cplxblur=20.0 / qblur=0.5 / ip_ratio=1.40 / pb_ratio=1.30 / aq=1:1.00
    Language : English
    Default : Yes
    Forced : No
    Color range : Limited
    Color primaries : BT.709
    Transfer characteristics : BT.709
    Matrix coefficients : BT.709

    Audio #1
    ID : 2
    Format : AC-3
    Format/Info : Audio Coding 3
    Mode extension : CM (complete main)
    Format settings, Endianness : Big
    Codec ID : A_AC3
    Duration : 2 h 3 min
    Bit rate mode : Constant
    Bit rate : 448 kb/s
    Channel(s) : 6 channels
    Channel positions : Front: L C R, Side: L R, LFE
    Sampling rate : 48.0 kHz
    Frame rate : 31.250 FPS (1536 spf)
    Compression mode : Lossy
    Stream size : 395 MiB (15%)
    Title : Dub (Blu-Ray CEE)
    Language : Russian
    Default : Yes
    Forced : No

    Audio #2
    ID : 3
    Format : AC-3
    Format/Info : Audio Coding 3
    Mode extension : CM (complete main)
    Format settings, Endianness : Big
    Codec ID : A_AC3
    Duration : 2 h 3 min
    Bit rate mode : Constant
    Bit rate : 448 kb/s
    Channel(s) : 6 channels
    Channel positions : Front: L C R, Side: L R, LFE
    Sampling rate : 48.0 kHz
    Frame rate : 31.250 FPS (1536 spf)
    Compression mode : Lossy
    Stream size : 395 MiB (15%)
    Language : English
    Default : No
    Forced : No

    Text #1
    ID : 4
    Format : UTF-8
    Codec ID : S_TEXT/UTF8
    Codec ID/Info : UTF-8 Plain Text
    Title : Forced
    Language : Russian
    Default : Yes
    Forced : No

    Text #2
    ID : 5
    Format : UTF-8
    Codec ID : S_TEXT/UTF8
    Codec ID/Info : UTF-8 Plain Text
    Title : Full
    Language : Russian
    Default : No
    Forced : No

    Text #3
    ID : 6
    Format : UTF-8
    Codec ID : S_TEXT/UTF8
    Codec ID/Info : UTF-8 Plain Text
    Language : Ukrainian
    Default : No
    Forced : No

    Text #4
    ID : 7
    Format : UTF-8
    Codec ID : S_TEXT/UTF8
    Codec ID/Info : UTF-8 Plain Text
    Title : Full
    Language : English
    Default : No
    Forced : No

    Menu
    00:00:00.000 : :Chapter 01
    00:07:03.881 : :Chapter 02
    00:15:42.942 : :Chapter 03
    00:19:47.895 : :Chapter 04
    00:27:25.852 : :Chapter 05
    00:33:09.362 : :Chapter 06
    00:41:07.214 : :Chapter 07
    00:48:20.063 : :Chapter 08
    00:55:21.651 : :Chapter 09
    01:05:41.228 : :Chapter 10
    01:13:15.891 : :Chapter 11
    01:22:26.900 : :Chapter 12
    01:31:30.193 : :Chapter 13
    01:39:55.656 : :Chapter 14
    01:46:30.801 : :Chapter 15
    01:53:30.136 : :Chapter 16
    02:03:19.100 : :Chapter 17
7.1 из 10
голосов: 7
/10
/10
VlaDyka 13-01-2017, 11:12
Информация
Посетители, находящиеся в группе Гости, не могут оставлять комментарии к данной публикации.