Панель пользователя
Регистрация

Воспользуйтесь социальными сетями для входа на https://freerutor.com

vk odnoklassniki facebook mailru yandex google
Рекомендуем
Document
Счетчик
Голосуй за нас
Популярное
загрузка...
Товары интернет магазина
загрузка...

Королева Катве (2016) BDRip 1080p | iTunes

Королева Катве (2016) BDRip 1080p | iTunes
Участники торрент обмена
Сидов Пиров Скачали
2 0 493
Характеристика
Размер Файлы
15.47 GB
Релиз группа
Поделиться раздачей
Фильмы (720,1080,Blu-Ray)
Наименование: Королева Катве
Оригинальное наименование: Queen of Katwe
Произведено: США, ЮАР
Категория: драма, биография, спорт
Режиссер постановщик: Мира Наир
В главных ролях: Лупита Нионго, Дэвид Ойелоуо, Нтаре Мвине, Рассел Савадье, Мадина Налванга, Морис Кирйа, Чарити Роуз Пимер, Тэрин Кйазе, Эстер Табандеке, Питер Одеке
Краткое описание: Молодая девушка из Уганды тренируется, чтобы стать чемпионкой мира по шахматам.
  • Видео данные: MPEG-4 AVC, 15.9 Mbps, 1920x804
    Аудио данные: Русский (AC3, 6 ch, 384 Кбит/с), английский (DTS, 6 ch, 1509 Кбит/с)
    Перевод: Профессиональный многоголосый [iTunes]
    Продолжительность: 02:04:17
  • Королева Катве (2016) BDRip 1080p | iTunes Королева Катве (2016) BDRip 1080p | iTunes Королева Катве (2016) BDRip 1080p | iTunes
  • Общее
    Уникальный идентификатор : 234549539444864354150830603320889570964 (0xB074992017216C54879ED71C40B9F694)
    Полное имя : E:\Раздача-BDRip\Koroleva_Katve (2016) BDRip 1080p_FreeRutor.mkv
    Формат : Matroska
    Версия формата : Version 2
    Размер файла : 15,5 Гбайт
    Продолжительность : 2 ч. 4 м.
    Общий поток : 17,8 Мбит/сек
    Название фильма : Queen of Katwe (2016) BDRip 1080p_FreeRutor_by_grab777
    Дата кодирования : UTC 2017-01-16 23:14:09
    Программа кодирования : mkvmerge v5.8.0 ('No Sleep / Pillow') built on Sep 2 2012 15:37:04
    Библиотека кодирования : libebml v1.2.3 + libmatroska v1.3.0

    Видео
    Идентификатор : 1
    Формат : AVC
    Формат/Информация : Advanced Video Codec
    Профиль формата : High@L4.1
    Параметр CABAC формата : Да
    Параметр ReFrames формата : 4 кадра
    Идентификатор кодека : V_MPEG4/ISO/AVC
    Продолжительность : 2 ч. 4 м.
    Битрейт : 15,5 Мбит/сек
    Ширина : 1920 пикселей
    Высота : 804 пикселя
    Соотношение сторон : 2,40:1
    Режим частоты кадров : Постоянный
    Частота кадров : 23,976 кадра/сек
    Цветовое пространство : YUV
    Субдискретизация насыщенности : 4:2:0
    Битовая глубина : 8 бит
    Тип развёртки : Прогрессивная
    Бит/(Пиксели*Кадры) : 0.420
    Размер потока : 13,5 Гбайт (87%)
    Заголовок : Video_MT
    Библиотека кодирования : x264 core 142 r2431+42 c69a006 tMod [8-bit@4:2:0 X86_64]
    Настройки программы : cabac=1 / ref=4 / deblock=1:-3:-3 / analyse=0x3:0x113 / me=umh / subme=10 / psy=1 / fade_compensate=0.00 / psy_rd=1.00:0.05 / mixed_ref=1 / me_range=48 / chroma_me=1 / trellis=2 / 8x8dct=1 / cqm=0 / deadzone=21,11 / fast_pskip=0 / chroma_qp_offset=-2 / threads=12 / lookahead_threads=2 / sliced_threads=0 / nr=0 / decimate=1 / interlaced=0 / bluray_compat=0 / constrained_intra=0 / fgo=0 / bframes=8 / b_pyramid=2 / b_adapt=2 / b_bias=0 / direct=3 / weightb=1 / open_gop=0 / weightp=2 / keyint=250 / keyint_min=23 / scenecut=40 / intra_refresh=0 / rc_lookahead=40 / rc=crf / mbtree=0 / crf=18.0000 / qcomp=0.60 / qpmin=0:0:0 / qpmax=69:69:69 / qpstep=4 / vbv_maxrate=50000 / vbv_bufsize=45000 / crf_max=0.0 / nal_hrd=none / filler=0 / ip_ratio=1.40 / pb_ratio=1.30 / aq=3:1.00 / aq-sensitivity=10.00 / aq-factor=1.00:1.00:1.00 / aq2=0 / aq3=0
    Язык : English
    Default : Да
    Forced : Нет
    Коэффициенты матрицы : BT.709

    Аудио #1
    Идентификатор : 2
    Формат : AC-3
    Формат/Информация : Audio Coding 3
    Расширение режима : CM (complete main)
    Параметр Endianness формата : Big
    Идентификатор кодека : A_AC3
    Продолжительность : 2 ч. 4 м.
    Вид битрейта : Постоянный
    Битрейт : 384 Кбит/сек
    Каналы : 6 каналов
    Расположение каналов : Front: L C R, Side: L R, LFE
    Частота : 48,0 КГц
    Битовая глубина : 16 бит
    Метод сжатия : С потерями
    Размер потока : 342 Мбайт (2%)
    Заголовок : MVO [iTunes]
    Язык : Russian
    Default : Да
    Forced : Нет

    Аудио #2
    Идентификатор : 3
    Формат : DTS
    Формат/Информация : Digital Theater Systems
    Режим : 16
    Параметр Endianness формата : Big
    Идентификатор кодека : A_DTS
    Продолжительность : 2 ч. 4 м.
    Вид битрейта : Постоянный
    Битрейт : 1509 Кбит/сек
    Каналы : 6 каналов
    Расположение каналов : Front: L C R, Side: L R, LFE
    Частота : 48,0 КГц
    Битовая глубина : 24 бит
    Метод сжатия : С потерями
    Размер потока : 1,31 Гбайт (8%)
    Заголовок : Original
    Язык : English
    Default : Нет
    Forced : Нет

    Меню
    00:00:00.000 : en:00:00:00.000
    00:05:51.893 : en:00:05:51.893
    00:13:42.071 : en:00:13:42.071
    00:18:01.038 : en:00:18:01.038
    00:22:59.378 : en:00:22:59.378
    00:32:52.762 : en:00:32:52.762
    00:41:16.516 : en:00:41:16.516
    00:48:40.543 : en:00:48:40.543
    00:56:02.651 : en:00:56:02.651
    01:00:29.876 : en:01:00:29.876
    01:06:12.802 : en:01:06:12.802
    01:13:24.775 : en:01:13:24.775
    01:24:09.294 : en:01:24:09.294
    01:32:47.479 : en:01:32:47.479
    01:40:04.081 : en:01:40:04.081
    01:47:09.632 : en:01:47:09.632
    01:54:20.645 : en:01:54:20.645
    01:57:34.798 : en:01:57:34.798
7.3 из 10
голосов: 3
/10
/10
foster720p 17-01-2017, 02:11
Информация
Посетители, находящиеся в группе Гости, не могут оставлять комментарии к данной публикации.