Панель пользователя
Регистрация

Воспользуйтесь социальными сетями для входа на https://freerutor.com

vk odnoklassniki facebook mailru yandex google
Рекомендуем
Document
Счетчик
Голосуй за нас
Популярное
загрузка...
Товары интернет магазина

Бен-Гур (2016) BDRip 720р | iTunes | R.G.Resident

Бен-Гур (2016) BDRip 720р | iTunes | R.G.Resident
Участники торрент обмена
Сидов Пиров Скачали
0 0 976
Характеристика
Размер Файлы
6.25 GB
Релиз группа
Поделиться раздачей
Фильмы (720,1080,Blu-Ray)
Наименование: Бен-Гур
Оригинальное наименование: Ben-Hur
Категория: боевик, драма, приключения
Произведено: США
Режиссер постановщик: Тимур Бекмамбетов
В главных ролях: Джек Хьюстон, Тоби Кеббелл, Родриго Санторо, Назанин Бониади, Айелет Зурер, Йохан Филип Асбек, София Блэк-Д`Элиа, Морган Фримен, Марван Кензари, Мойзес Ариас
Краткое описание: История Бен-Гура, потомка знатного иудейского рода, который был предан своим лучшим другом-римлянином. Проведя много лет в рабстве на римских галерах, Бен-Гур в итоге получает возможность вернуться на родину и отомстить обидчику.
  • Видео данные: MPEG-4 AVC, 5290 Кбит/с, 1280x534
    Аудио данные: Русский (AC3, 6 ch, 384 Кбит/с), английский (DTS, 6 ch, 1509 Кбит/с)
    Перевод: Дубляж - [iTunes]
    Продолжительность: 02:04:43
    Субтитры: английские (full), английские (SDH)
  • Бен-Гур (2016) BDRip 720р | iTunes | R.G.Resident Бен-Гур (2016) BDRip 720р | iTunes | R.G.Resident Бен-Гур (2016) BDRip 720р | iTunes | R.G.Resident
  • x264 [info]: frame I:1264 Avg QP:12.20 size:145450
    x264 [info]: frame P:53966 Avg QP:16.26 size: 47484
    x264 [info]: frame B:124193 Avg QP:18.03 size: 17715

    General
    Unique ID : 178854162390221579403327145618310109580 (0x868E0F0721922BA193310531D47F198C)
    Complete name : D:\download\Ben.Hur.2016.BDRip 720р by schultz R.G.Resident.mkv
    Format : Matroska
    Format version : Version 4 / Version 2
    File size : 6.25 GiB
    Duration : 2 h 4 min
    Overall bit rate : 7 179 kb/s
    Encoded date : UTC 2017-01-11 22:05:50
    Writing application : mkvmerge v8.9.0 ('Father Daughter') 64bit
    Writing library : libebml v1.3.3 + libmatroska v1.4.4

    Video
    ID : 1
    Format : AVC
    Format/Info : Advanced Video Codec
    Format profile : High@L4.1
    Format settings, CABAC : Yes
    Format settings, ReFrames : 12 frames
    Codec ID : V_MPEG4/ISO/AVC
    Duration : 2 h 4 min
    Bit rate : 5 290 kb/s
    Width : 1 280 pixels
    Height : 534 pixels
    Display aspect ratio : 2.40:1
    Frame rate mode : Constant
    Frame rate : 23.976 (23976/1000) FPS
    Color space : YUV
    Chroma subsampling : 4:2:0
    Bit depth : 8 bits
    Scan type : Progressive
    Bits/(Pixel*Frame) : 0.323
    Stream size : 4.61 GiB (74%)
    Writing library : x264 core 146 r2538 121396c
    Encoding settings : cabac=1 / ref=12 / deblock=1:-3:-3 / analyse=0x3:0x113 / me=umh / subme=11 / psy=1 / psy_rd=1.00:0.00 / mixed_ref=1 / me_range=48 / chroma_me=1 / trellis=2 / 8x8dct=1 / cqm=0 / deadzone=21,11 / fast_pskip=0 / chroma_qp_offset=-2 / threads=12 / lookahead_threads=3 / sliced_threads=0 / nr=0 / decimate=0 / interlaced=0 / bluray_compat=0 / constrained_intra=0 / bframes=11 / b_pyramid=2 / b_adapt=2 / b_bias=0 / direct=3 / weightb=1 / open_gop=0 / weightp=2 / keyint=240 / keyint_min=23 / scenecut=40 / intra_refresh=0 / rc_lookahead=40 / rc=2pass / mbtree=1 / bitrate=5290 / ratetol=1.0 / qcomp=0.60 / qpmin=0 / qpmax=69 / qpstep=4 / cplxblur=20.0 / qblur=0.5 / vbv_maxrate=50000 / vbv_bufsize=62500 / nal_hrd=none / filler=0 / ip_ratio=1.40 / aq=1:1.00
    Language : English
    Default : Yes
    Forced : No

    Audio #1
    ID : 2
    Format : AC-3
    Format/Info : Audio Coding 3
    Mode extension : CM (complete main)
    Format settings, Endianness : Big
    Codec ID : A_AC3
    Duration : 2 h 3 min
    Bit rate mode : Constant
    Bit rate : 384 kb/s
    Channel(s) : 6 channels
    Channel positions : Front: L C R, Side: L R, LFE
    Sampling rate : 48.0 kHz
    Frame rate : 31.250 FPS (1536 spf)
    Compression mode : Lossy
    Stream size : 339 MiB (5%)
    Language : Russian
    Default : Yes
    Forced : No

    Audio #2
    ID : 3
    Format : DTS
    Format/Info : Digital Theater Systems
    Mode : 16
    Format settings, Endianness : Big
    Codec ID : A_DTS
    Duration : 2 h 4 min
    Bit rate mode : Constant
    Bit rate : 1 509 kb/s
    Channel(s) : 6 channels
    Channel positions : Front: L C R, Side: L R, LFE
    Sampling rate : 48.0 kHz
    Frame rate : 93.750 FPS (512 spf)
    Bit depth : 24 bits
    Compression mode : Lossy
    Stream size : 1.31 GiB (21%)
    Language : English
    Default : No
    Forced : No

    Text #1
    ID : 4
    Format : UTF-8
    Codec ID : S_TEXT/UTF8
    Codec ID/Info : UTF-8 Plain Text
    Duration : 1 h 56 min
    Bit rate : 46 b/s
    Count of elements : 1473
    Stream size : 39.5 KiB (0%)
    Title : full
    Language : English
    Default : No
    Forced : No

    Text #2
    ID : 5
    Format : UTF-8
    Codec ID : S_TEXT/UTF8
    Codec ID/Info : UTF-8 Plain Text
    Duration : 1 h 56 min
    Bit rate : 51 b/s
    Count of elements : 1681
    Stream size : 44.3 KiB (0%)
    Title : SDH
    Language : English
    Default : No
    Forced : No

    Menu
    00:00:00.000 : en:00:00:00.000
    00:07:03.882 : en:00:07:03.882
    00:15:42.942 : en:00:15:42.942
    00:19:47.895 : en:00:19:47.895
    00:27:25.853 : en:00:27:25.853
    00:33:09.362 : en:00:33:09.362
    00:41:07.215 : en:00:41:07.215
    00:48:20.064 : en:00:48:20.064
    00:55:21.652 : en:00:55:21.652
    01:05:41.229 : en:01:05:41.229
    01:13:15.891 : en:01:13:15.891
    01:22:26.900 : en:01:22:26.900
    01:31:30.193 : en:01:31:30.193
    01:39:55.656 : en:01:39:55.656
    01:46:30.801 : en:01:46:30.801
    01:54:54.638 : en:01:54:54.638
7.2 из 10
голосов: 5
/10
/10
schultz 12-01-2017, 01:43
Информация
Посетители, находящиеся в группе Гости, не могут оставлять комментарии к данной публикации.