Панель пользователя
Регистрация

Воспользуйтесь социальными сетями для входа на https://freerutor.com

vk odnoklassniki facebook mailru yandex google
Рекомендуем
загрузка...
Счетчик
Голосуй за нас
Популярное
Товары интернет магазина

Инферно (2016) BDRip 720р | iTunes | R.G.Resident

Инферно (2016) BDRip 720р | iTunes | R.G.Resident
Участники торрент обмена
Сидов Пиров Скачали
13 3 749
Характеристика
Размер Файлы
8.03 GB
Релиз группа
Поделиться раздачей
Фильмы (720,1080,Blu-Ray)
Наименование: Инферно
Оригинальное наименование: Inferno
Категория: боевик, триллер, драма, криминал, детектив, приключения
Произведено: Венгрия, США
Режиссер постановщик: Рон Ховард
В главных ролях: Том Хэнкс, Бен Фостер, Сидсе Бабетт Кнудсен, Фелисити Джонс, Ирфан Кхан, Омар Си, Ана Улару, Ката Сарбо, Ида Дарвиш, Вольфганг Штегеман
Краткое описание: Профессор Роберт Лэнгдон приходит в сознание в одной из итальянских больниц, полностью потеряв память. Местный врач Сиенна Брукс пытается помочь Роберту не только восстановить воспоминания, но и остановить загадочных злоумышленников, которые намерены распространить смертоносный вирус. Разгадка таинственной истории связана с «Адом» (ит. Inferno) - первой частью «Божественной комедии» Данте.
  • Видео данные: MPEG-4 AVC, 7368 Кбит/с, 1280x690
    Аудио данные: Русский (AC3, 6 ch, 384 Кбит/с), украинский (AC3, 2 ch, 192 Кбит/с), английский (DTS, 6 ch, 1509 Кбит/с)
    Перевод: Дубляж - [iTunes]
    Продолжительность: 02:01:35
    Субтитры: русские (Forced, full), украинские (Forced, full), английские (Forced, full)
  • Инферно (2016) BDRip 720р | iTunes | R.G.Resident Инферно (2016) BDRip 720р | iTunes | R.G.Resident Инферно (2016) BDRip 720р | iTunes | R.G.Resident
  • x264 [info]: frame I:1439 Avg QP:14.09 size:157510
    x264 [info]: frame P:46433 Avg QP:17.60 size: 60128
    x264 [info]: frame B:127040 Avg QP:19.05 size: 29108

    General
    Unique ID : 236504917685172267364779267947013800283 (0xB1ED30B745002F2596BF720B15AB015B)
    Complete name : D:\download\Inferno.2016.BDRip 720р by schultz R.G.Resident.mkv
    Format : Matroska
    Format version : Version 4 / Version 2
    File size : 8.03 GiB
    Duration : 2 h 1 min
    Overall bit rate : 9 454 kb/s
    Encoded date : UTC 2017-01-10 07:30:30
    Writing application : mkvmerge v8.9.0 ('Father Daughter') 64bit
    Writing library : libebml v1.3.3 + libmatroska v1.4.4

    Video
    ID : 1
    Format : AVC
    Format/Info : Advanced Video Codec
    Format profile : High@L4.1
    Format settings, CABAC : Yes
    Format settings, ReFrames : 12 frames
    Codec ID : V_MPEG4/ISO/AVC
    Duration : 2 h 1 min
    Bit rate : 7 368 kb/s
    Width : 1 280 pixels
    Height : 690 pixels
    Display aspect ratio : 1.85:1
    Frame rate mode : Constant
    Frame rate : 23.976 (23976/1000) FPS
    Color space : YUV
    Chroma subsampling : 4:2:0
    Bit depth : 8 bits
    Scan type : Progressive
    Bits/(Pixel*Frame) : 0.348
    Stream size : 6.26 GiB (78%)
    Writing library : x264 core 146 r2538 121396c
    Encoding settings : cabac=1 / ref=12 / deblock=1:-3:-3 / analyse=0x3:0x113 / me=umh / subme=11 / psy=1 / psy_rd=1.00:0.00 / mixed_ref=1 / me_range=48 / chroma_me=1 / trellis=2 / 8x8dct=1 / cqm=0 / deadzone=21,11 / fast_pskip=0 / chroma_qp_offset=-2 / threads=12 / lookahead_threads=3 / sliced_threads=0 / nr=0 / decimate=0 / interlaced=0 / bluray_compat=0 / constrained_intra=0 / bframes=11 / b_pyramid=2 / b_adapt=2 / b_bias=0 / direct=3 / weightb=1 / open_gop=0 / weightp=2 / keyint=240 / keyint_min=23 / scenecut=40 / intra_refresh=0 / rc_lookahead=40 / rc=2pass / mbtree=1 / bitrate=7368 / ratetol=1.0 / qcomp=0.60 / qpmin=0 / qpmax=69 / qpstep=4 / cplxblur=20.0 / qblur=0.5 / vbv_maxrate=50000 / vbv_bufsize=62500 / nal_hrd=none / filler=0 / ip_ratio=1.40 / aq=1:1.00
    Language : English
    Default : Yes
    Forced : No

    Audio #1
    ID : 2
    Format : AC-3
    Format/Info : Audio Coding 3
    Mode extension : CM (complete main)
    Format settings, Endianness : Big
    Codec ID : A_AC3
    Duration : 2 h 1 min
    Bit rate mode : Constant
    Bit rate : 384 kb/s
    Channel(s) : 6 channels
    Channel positions : Front: L C R, Side: L R, LFE
    Sampling rate : 48.0 kHz
    Frame rate : 31.250 FPS (1536 spf)
    Compression mode : Lossy
    Stream size : 334 MiB (4%)
    Language : Russian
    Default : Yes
    Forced : No

    Audio #2
    ID : 3
    Format : AC-3
    Format/Info : Audio Coding 3
    Mode extension : CM (complete main)
    Format settings, Endianness : Big
    Codec ID : A_AC3
    Duration : 2 h 1 min
    Bit rate mode : Constant
    Bit rate : 192 kb/s
    Channel(s) : 2 channels
    Channel positions : Front: L R
    Sampling rate : 48.0 kHz
    Frame rate : 31.250 FPS (1536 spf)
    Compression mode : Lossy
    Delay relative to video : 25 ms
    Stream size : 167 MiB (2%)
    Language : Ukrainian
    Default : No
    Forced : No

    Audio #3
    ID : 4
    Format : DTS
    Format/Info : Digital Theater Systems
    Mode : 16
    Format settings, Endianness : Big
    Codec ID : A_DTS
    Duration : 2 h 1 min
    Bit rate mode : Constant
    Bit rate : 1 509 kb/s
    Channel(s) : 6 channels
    Channel positions : Front: L C R, Side: L R, LFE
    Sampling rate : 48.0 kHz
    Frame rate : 93.750 FPS (512 spf)
    Bit depth : 24 bits
    Compression mode : Lossy
    Stream size : 1.28 GiB (16%)
    Language : English
    Default : No
    Forced : No

    Text #1
    ID : 5
    Format : UTF-8
    Codec ID : S_TEXT/UTF8
    Codec ID/Info : UTF-8 Plain Text
    Duration : 1 h 53 min
    Bit rate : 3 b/s
    Count of elements : 48
    Stream size : 2.58 KiB (0%)
    Title : Forced
    Language : Russian
    Default : Yes
    Forced : No

    Text #2
    ID : 6
    Format : UTF-8
    Codec ID : S_TEXT/UTF8
    Codec ID/Info : UTF-8 Plain Text
    Duration : 1 h 55 min
    Bit rate : 90 b/s
    Count of elements : 1399
    Stream size : 76.5 KiB (0%)
    Title : full
    Language : Russian
    Default : No
    Forced : No

    Text #3
    ID : 7
    Format : UTF-8
    Codec ID : S_TEXT/UTF8
    Codec ID/Info : UTF-8 Plain Text
    Duration : 1 h 50 min
    Bit rate : 3 b/s
    Count of elements : 47
    Stream size : 2.53 KiB (0%)
    Title : Forced
    Language : Ukrainian
    Default : No
    Forced : No

    Text #4
    ID : 8
    Format : UTF-8
    Codec ID : S_TEXT/UTF8
    Codec ID/Info : UTF-8 Plain Text
    Duration : 1 h 55 min
    Bit rate : 89 b/s
    Count of elements : 1398
    Stream size : 75.0 KiB (0%)
    Title : full
    Language : Ukrainian
    Default : No
    Forced : No

    Text #5
    ID : 9
    Format : UTF-8
    Codec ID : S_TEXT/UTF8
    Codec ID/Info : UTF-8 Plain Text
    Duration : 57 min
    Bit rate : 2 b/s
    Count of elements : 29
    Stream size : 1.01 KiB (0%)
    Title : Forced
    Language : English
    Default : No
    Forced : No

    Text #6
    ID : 10
    Format : UTF-8
    Codec ID : S_TEXT/UTF8
    Codec ID/Info : UTF-8 Plain Text
    Duration : 1 h 55 min
    Bit rate : 55 b/s
    Count of elements : 1360
    Stream size : 46.5 KiB (0%)
    Title : full
    Language : English
    Default : No
    Forced : No

    Menu
    00:00:00.000 : en:00:00:00.000
    00:04:13.545 : en:00:04:13.545
    00:12:32.919 : en:00:12:32.919
    00:23:43.005 : en:00:23:43.005
    00:36:03.161 : en:00:36:03.161
    00:51:11.652 : en:00:51:11.652
    00:59:16.595 : en:00:59:16.595
    01:01:42.908 : en:01:01:42.908
    01:07:42.517 : en:01:07:42.517
    01:13:25.234 : en:01:13:25.234
    01:20:02.256 : en:01:20:02.256
    01:24:37.364 : en:01:24:37.364
    01:31:25.271 : en:01:31:25.271
    01:35:42.111 : en:01:35:42.111
    01:40:51.128 : en:01:40:51.128
    01:52:27.908 : en:01:52:27.908
10.0 из 10
голосов: 2
/10
/10
schultz 10-01-2017, 11:20
Информация
Посетители, находящиеся в группе Гости, не могут оставлять комментарии к данной публикации.