Панель пользователя
Регистрация

Воспользуйтесь социальными сетями для входа на https://freerutor.com

vk odnoklassniki facebook mailru yandex google
Рекомендуем
загрузка...
Счетчик
Голосуй за нас
Популярное
Товары интернет магазина

Шпионы по соседству (2016) BDRip-AVC | iTunes | R.G.Resident

Шпионы по соседству (2016) BDRip-AVC | iTunes | R.G.Resident
Участники торрент обмена
Сидов Пиров Скачали
2 0 525
Характеристика
Размер Файлы
2.80 GB
Релиз группа
Поделиться раздачей
Фильмы (AVC)
Наименование: Шпионы по соседству
Оригинальное наименование: Keeping Up with the Joneses
Категория: боевик, комедия
Произведено: США
Режиссер постановщик: Грег Моттола
В главных ролях: Зак Галифианакис, Айла Фишер, Джон Хэмм, Галь Гадот, Пэттон Освальт, Минг Жао, Мэтт Уолш, Мэрибет Монро, Майкл Лью, Кевин Данн
Краткое описание: Супружеская пара из пригорода оказывается втянутой в международный шпионский заговор, когда обнаруживает, что их, казалось бы, идеальные новые соседи являются правительственными агентами.
  • Видео данные: MPEG-4 AVC, 2978 Кбит/с, 1024x426
    Аудио данные: Русский (AC3, 6 ch, 384 Кбит/с), английский (АС3, 6 ch, 448 Кбит/с)
    Перевод: Дубляж - [iTunes]
    Продолжительность: 01:45:21
    Субтитры: русские (Forced, Full), английские (Forced, Full)
  • Шпионы по соседству (2016) BDRip-AVC | iTunes | R.G.Resident Шпионы по соседству (2016) BDRip-AVC | iTunes | R.G.Resident Шпионы по соседству (2016) BDRip-AVC | iTunes | R.G.Resident
  • General
    Unique ID : 232121200770233462316912578880630675079 (0xAEA0EAC8F83208E19BA38B37E6B3D687)
    Complete name : D:\download\Keeping Up with the Joneses.2016.BDRip-AVC by schultz R.G.Resident.mkv
    Format : Matroska
    Format version : Version 4 / Version 2
    File size : 2.80 GiB
    Duration : 1 h 45 min
    Overall bit rate : 3 812 kb/s
    Encoded date : UTC 2017-01-08 13:49:22
    Writing application : mkvmerge v8.9.0 ('Father Daughter') 64bit
    Writing library : libebml v1.3.3 + libmatroska v1.4.4

    Video
    ID : 1
    Format : AVC
    Format/Info : Advanced Video Codec
    Format profile : High@L4.1
    Format settings, CABAC : Yes
    Format settings, ReFrames : 12 frames
    Codec ID : V_MPEG4/ISO/AVC
    Duration : 1 h 45 min
    Bit rate : 2 978 kb/s
    Width : 1 024 pixels
    Height : 426 pixels
    Display aspect ratio : 2.40:1
    Frame rate mode : Constant
    Frame rate : 23.976 (23976/1000) FPS
    Color space : YUV
    Chroma subsampling : 4:2:0
    Bit depth : 8 bits
    Scan type : Progressive
    Bits/(Pixel*Frame) : 0.285
    Stream size : 2.19 GiB (78%)
    Writing library : x264 core 146 r2538 121396c
    Encoding settings : cabac=1 / ref=12 / deblock=1:-3:-3 / analyse=0x3:0x113 / me=umh / subme=11 / psy=1 / psy_rd=1.00:0.00 / mixed_ref=1 / me_range=48 / chroma_me=1 / trellis=2 / 8x8dct=1 / cqm=0 / deadzone=21,11 / fast_pskip=0 / chroma_qp_offset=-2 / threads=12 / lookahead_threads=3 / sliced_threads=0 / nr=0 / decimate=0 / interlaced=0 / bluray_compat=0 / constrained_intra=0 / bframes=11 / b_pyramid=2 / b_adapt=2 / b_bias=0 / direct=3 / weightb=1 / open_gop=0 / weightp=2 / keyint=240 / keyint_min=23 / scenecut=40 / intra_refresh=0 / rc_lookahead=40 / rc=2pass / mbtree=1 / bitrate=2978 / ratetol=1.0 / qcomp=0.60 / qpmin=0 / qpmax=69 / qpstep=4 / cplxblur=20.0 / qblur=0.5 / vbv_maxrate=50000 / vbv_bufsize=62500 / nal_hrd=none / filler=0 / ip_ratio=1.40 / aq=1:1.00
    Language : English
    Default : Yes
    Forced : No

    Audio #1
    ID : 2
    Format : AC-3
    Format/Info : Audio Coding 3
    Mode extension : CM (complete main)
    Format settings, Endianness : Big
    Codec ID : A_AC3
    Duration : 1 h 45 min
    Bit rate mode : Constant
    Bit rate : 384 kb/s
    Channel(s) : 6 channels
    Channel positions : Front: L C R, Side: L R, LFE
    Sampling rate : 48.0 kHz
    Frame rate : 31.250 FPS (1536 spf)
    Compression mode : Lossy
    Stream size : 289 MiB (10%)
    Language : Russian
    Default : Yes
    Forced : No

    Audio #2
    ID : 3
    Format : AC-3
    Format/Info : Audio Coding 3
    Mode extension : CM (complete main)
    Format settings, Endianness : Big
    Codec ID : A_AC3
    Duration : 1 h 45 min
    Bit rate mode : Constant
    Bit rate : 448 kb/s
    Channel(s) : 6 channels
    Channel positions : Front: L C R, Side: L R, LFE
    Sampling rate : 48.0 kHz
    Frame rate : 31.250 FPS (1536 spf)
    Compression mode : Lossy
    Stream size : 338 MiB (12%)
    Language : English
    Default : No
    Forced : No

    Text #1
    ID : 4
    Format : UTF-8
    Codec ID : S_TEXT/UTF8
    Codec ID/Info : UTF-8 Plain Text
    Duration : 1 h 44 min
    Bit rate : 1 b/s
    Count of elements : 20
    Stream size : 1.11 KiB (0%)
    Title : Forced
    Language : Russian
    Default : Yes
    Forced : No

    Text #2
    ID : 5
    Format : UTF-8
    Codec ID : S_TEXT/UTF8
    Codec ID/Info : UTF-8 Plain Text
    Duration : 1 h 44 min
    Bit rate : 131 b/s
    Count of elements : 2007
    Stream size : 100 KiB (0%)
    Title : Full
    Language : Russian
    Default : No
    Forced : No

    Text #3
    ID : 6
    Format : UTF-8
    Codec ID : S_TEXT/UTF8
    Codec ID/Info : UTF-8 Plain Text
    Duration : 16 s 725 ms
    Bit rate : 89 b/s
    Count of elements : 5
    Stream size : 188 Bytes (0%)
    Title : Forced
    Language : English
    Default : No
    Forced : No

    Text #4
    ID : 7
    Format : UTF-8
    Codec ID : S_TEXT/UTF8
    Codec ID/Info : UTF-8 Plain Text
    Duration : 1 h 36 min
    Bit rate : 92 b/s
    Count of elements : 1863
    Stream size : 65.2 KiB (0%)
    Title : Full
    Language : English
    Default : No
    Forced : No

    Menu
    00:00:00.000 : en:00:00:00.000
    00:03:43.473 : en:00:03:43.473
    00:06:41.651 : en:00:06:41.651
    00:09:55.845 : en:00:09:55.845
    00:13:28.182 : en:00:13:28.182
    00:17:06.025 : en:00:17:06.025
    00:21:07.933 : en:00:21:07.933
    00:26:02.311 : en:00:26:02.311
    00:30:07.514 : en:00:30:07.514
    00:33:56.743 : en:00:33:56.743
    00:37:43.761 : en:00:37:43.761
    00:40:59.457 : en:00:40:59.457
    00:45:35.149 : en:00:45:35.149
    00:49:00.312 : en:00:49:00.312
    00:52:35.152 : en:00:52:35.152
    00:55:59.189 : en:00:55:59.189
    01:00:50.230 : en:01:00:50.230
    01:04:33.244 : en:01:04:33.244
    01:08:47.665 : en:01:08:47.665
    01:12:04.654 : en:01:12:04.654
    01:15:58.554 : en:01:15:58.554
    01:19:31.809 : en:01:19:31.809
    01:22:46.545 : en:01:22:46.545
    01:25:43.972 : en:01:25:43.972
    01:29:02.295 : en:01:29:02.295
    01:31:44.874 : en:01:31:44.874
    01:34:18.528 : en:01:34:18.528
    01:37:32.680 : en:01:37:32.680
10.0 из 10
голосов: 2
/10
/10
schultz 8-01-2017, 17:33
Информация
Посетители, находящиеся в группе Гости, не могут оставлять комментарии к данной публикации.