Панель пользователя
Регистрация

Воспользуйтесь социальными сетями для входа на https://freerutor.com

vk odnoklassniki facebook mailru yandex google
Рекомендуем
Document
Счетчик
Товары интернет магазина
Document

Арсенал (2017) BDRip 720p | iTunes

Арсенал (2017) BDRip 720p | iTunes
Участники торрент обмена
Сидов Пиров Скачали
8 1 391
Характеристика
Размер Файлы
3.66 GB
Поделиться раздачей
Фильмы (720,1080,Blu-Ray)
Наименование: Арсенал
Оригинальное наименование: Arsenal
Произведено: США
Категория: триллер
Режиссер постановщик: Стивен С. Миллер
В главных ролях: Николас Кейдж, Джон Кьюсак, Эдриан Гренье, Джонатон Шек, Лидия Халл, Хезер Йохансен, Марк МакКалло, Эбби Гэйл, Кристофер Коппола
Краткое описание: Гангстерский триллер о крупном бандите из Филадельфии, у которого похитили брата-должника с требованием о баснословном выкупе. Все вокруг полагают, что это подставное похищение, организованное самим «заложником» для вымогательства. Но невзирая на чужие советы, герой решает не бросать брата на произвол судьбы.
  • Видео данные: MPEG-4 AVC, 4541 Кбит/с, 1280x536
    Аудио данные: Русский (AC3, 6 ch, 384 Кбит/с), английский (AC3, 6 ch, 640 Кбит/с)
    Перевод: Профессиональный многоголосый [iTunes]
    Субтитры: Английские
    Продолжительность: 01:32:15
  • Арсенал (2017) BDRip 720p | iTunes Арсенал (2017) BDRip 720p | iTunes Арсенал (2017) BDRip 720p | iTunes
  • Общее
    Уникальный идентификатор : 212626989783284747599456984363221750961 (0x9FF677FA2863D5AC8FF0232E299994B1)
    Полное имя : D:\Загрузки\Arsenal.2017.P.BDRip.72Op.mkv
    Формат : Matroska
    Версия формата : Version 2
    Размер файла : 3,66 Гбайт
    Продолжительность : 1 ч. 32 м.
    Общий поток : 5678 Кбит/сек
    Дата кодирования : UTC 2017-12-01 13:33:59
    Программа кодирования : mkvmerge v7.8.0 ('River Man') 32bit built on Apr 3 2015 12:11:22
    Библиотека кодирования : libebml v1.3.1 + libmatroska v1.4.2

    Видео
    Идентификатор : 1
    Формат : AVC
    Формат/Информация : Advanced Video Codec
    Профиль формата : High@L4.1
    Настройки формата : CABAC / 9 Ref Frames
    Параметр CABAC формата : Да
    Параметр RefFrames формата : 9 кадров
    Идентификатор кодека : V_MPEG4/ISO/AVC
    Продолжительность : 1 ч. 32 м.
    Битрейт : 4541 Кбит/сек
    Ширина : 1280 пикселей
    Высота : 536 пикселей
    Соотношение сторон : 2,40:1
    Режим частоты кадров : Постоянный
    Частота кадров : 23,976 (24000/1001) кадра/сек
    Цветовое пространство : YUV
    Субдискретизация насыщенности : 4:2:0
    Битовая глубина : 8 бит
    Тип развёртки : Прогрессивная
    Бит/(Пиксели*Кадры) : 0.276
    Размер потока : 2,93 Гбайт (80%)
    Библиотека кодирования : x264 core 149 r2771+45 509cceb 7mod [8-bit@all X86_64]
    Настройки программы : cabac=1 / ref=9 / deblock=1:-3:-3 / analyse=0x3:0x113 / me=umh / subme=10 / psy=1 / fade_compensate=0.00 / psy_rd=1.00:0.05 / mixed_ref=1 / me_range=32 / chroma_me=1 / trellis=2 / 8x8dct=1 / cqm=0 / deadzone=21,11 / fast_pskip=0 / chroma_qp_offset=-2 / threads=12 / lookahead_threads=2 / sliced_threads=0 / nr=0 / decimate=1 / interlaced=0 / bluray_compat=0 / constrained_intra=0 / fgo=0 / bframes=8 / b_pyramid=2 / b_adapt=2 / b_bias=0 / direct=3 / weightb=1 / open_gop=0 / weightp=2 / keyint=250 / keyint_min=23 / scenecut=40 / intra_refresh=0 / rc_lookahead=40 / rc=crf / mbtree=0 / crf=18.0000 / qcomp=0.60 / qpmin=0:0:0 / qpmax=69:69:69 / qpstep=4 / vbv_maxrate=30000 / vbv_bufsize=30000 / crf_max=0.0 / nal_hrd=none / filler=0 / ip_ratio=1.40 / pb_ratio=1.30 / aq=3:1.00 / aq-sensitivity=10.00 / aq-factor=1.00:1.00:1.00 / aq2=0 / aq3=0
    Язык : English
    Default : Да
    Forced : Нет
    Цветовой диапазон : Limited
    Коэффициенты матрицы : BT.709

    Аудио #1
    Идентификатор : 2
    Формат : AC-3
    Формат/Информация : Audio Coding 3
    Идентификатор кодека : A_AC3
    Продолжительность : 1 ч. 32 м.
    Вид битрейта : Постоянный
    Битрейт : 384 Кбит/сек
    Каналы : 6 каналов
    Расположение каналов : Front: L C R, Side: L R, LFE
    Частота : 48,0 КГц
    Частота кадров : 31,250 кадров/сек (1536 SPF)
    Битовая глубина : 16 бит
    Метод сжатия : С потерями
    Размер потока : 253 Мбайт (7%)
    Язык : Russian
    ServiceKind/String : Complete Main
    Default : Да
    Forced : Нет

    Аудио #2
    Идентификатор : 3
    Формат : AC-3
    Формат/Информация : Audio Coding 3
    Идентификатор кодека : A_AC3
    Продолжительность : 1 ч. 32 м.
    Вид битрейта : Постоянный
    Битрейт : 640 Кбит/сек
    Каналы : 6 каналов
    Расположение каналов : Front: L C R, Side: L R, LFE
    Частота : 48,0 КГц
    Частота кадров : 31,250 кадров/сек (1536 SPF)
    Битовая глубина : 16 бит
    Метод сжатия : С потерями
    Размер потока : 422 Мбайт (11%)
    Язык : English
    ServiceKind/String : Complete Main
    Default : Нет
    Forced : Нет

    Текст
    Идентификатор : 4
    Формат : UTF-8
    Идентификатор кодека : S_TEXT/UTF8
    Идентификатор кодека/Информация : UTF-8 Plain Text
    Язык : English
    Default : Нет
    Forced : Нет

    Меню
    00:00:00.000 : en:00:00:00.000
    00:06:10.245 : en:00:06:10.245
    00:11:19.512 : en:00:11:19.512
    00:18:02.039 : en:00:18:02.039
    00:24:29.218 : en:00:24:29.218
    00:30:56.354 : en:00:30:56.354
    00:37:17.235 : en:00:37:17.235
    00:42:08.276 : en:00:42:08.276
    00:48:51.720 : en:00:48:51.720
    00:54:16.461 : en:00:54:16.461
    00:59:14.718 : en:00:59:14.718
    01:04:20.732 : en:01:04:20.732
    01:09:47.892 : en:01:09:47.892
    01:15:18.305 : en:01:15:18.305
    01:20:12.641 : en:01:20:12.641
    01:24:13.799 : en:01:24:13.799

10.0 из 10
голосов: 4
foster720p 1-12-2017, 16:58
Информация
Посетители, находящиеся в группе Гости, не могут оставлять комментарии к данной публикации.