Панель пользователя
Регистрация

Воспользуйтесь социальными сетями для входа на https://freerutor.com

vk odnoklassniki facebook mailru yandex google
Рекомендуем
загрузка...
Счетчик
Голосуй за нас
Популярное
Товары интернет магазина

Глубоководный горизонт (2016) BDRip-AVC | iTunes | R.G.Resident

Глубоководный горизонт (2016) BDRip-AVC | iTunes | R.G.Resident
Участники торрент обмена
Сидов Пиров Скачали
318 5 72250
Характеристика
Размер Файлы
2.51 GB
Релиз группа
Поделиться раздачей
Фильмы (AVC)
Наименование: Глубоководный горизонт
Оригинальное наименование: Deepwater Horizon
Категория: боевик, триллер, драма
Произведено: США
Режиссер постановщик: Питер Берг
В главных ролях: Марк Уолберг, Курт Расселл, Джон Малкович, Джина Родригез, Дилан О`Брайэн, Кейт Хадсон, Итэн Сапли, Генри Фрост, Дуглас М. Гриффин, Сью-Линн Ансари, Брэд Лелэнд, Дж.Д. Эвермор
Краткое описание: Отправляясь на очередную вахту и прощаясь с семьями, они не подозревали, что могут не вернуться... Это основанная на реальных событиях история о страшной аварии на нефтяной платформе «Глубоководный горизонт», которая произошла в 2010 году в Мексиканском заливе. Хроника беспримерного мужества и отваги перед лицом одной из самых страшных техногенных катастроф в мировой истории.
  • Видео данные: MPEG-4 AVC, 2518 Кбит/с, 1024x426
    Аудио данные: Русский (AC3, 6 ch, 384 Кбит/с), английский (АС3, 6 ch, 448 Кбит/с)
    Перевод: Дубляж - [iTunes]
    Продолжительность: 01:47:17
    Субтитры: английские (Full), английские (SDH)
  • Глубоководный горизонт (2016) BDRip-AVC | iTunes | R.G.Resident Глубоководный горизонт (2016) BDRip-AVC | iTunes | R.G.Resident Глубоководный горизонт (2016) BDRip-AVC | iTunes | R.G.Resident
  • General
    Unique ID : 235587284295307961521451496844058400906 (0xB13C75E590691DCC946F6C099B73988A)
    Complete name : D:downloadDeepwater.Horizon.2016.BDRip-AVC by schultz R.G.Resident.mkv
    Format : Matroska
    Format version : Version 4 / Version 2
    File size : 2.51 GiB
    Duration : 1 h 47 min
    Overall bit rate : 3 351 kb/s
    Encoded date : UTC 2017-01-01 17:25:02
    Writing application : mkvmerge v8.9.0 ('Father Daughter') 64bit
    Writing library : libebml v1.3.3 + libmatroska v1.4.4

    Video
    ID : 1
    Format : AVC
    Format/Info : Advanced Video Codec
    Format profile : High@L4.1
    Format settings, CABAC : Yes
    Format settings, ReFrames : 12 frames
    Codec ID : V_MPEG4/ISO/AVC
    Duration : 1 h 47 min
    Bit rate : 2 518 kb/s
    Width : 1 024 pixels
    Height : 426 pixels
    Display aspect ratio : 2.40:1
    Frame rate mode : Constant
    Frame rate : 23.976 (23976/1000) FPS
    Color space : YUV
    Chroma subsampling : 4:2:0
    Bit depth : 8 bits
    Scan type : Progressive
    Bits/(Pixel*Frame) : 0.241
    Stream size : 1.89 GiB (75%)
    Writing library : x264 core 146 r2538 121396c
    Encoding settings : cabac=1 / ref=12 / deblock=1:-3:-3 / analyse=0x3:0x113 / me=umh / subme=11 / psy=1 / psy_rd=1.00:0.00 / mixed_ref=1 / me_range=48 / chroma_me=1 / trellis=2 / 8x8dct=1 / cqm=0 / deadzone=21,11 / fast_pskip=0 / chroma_qp_offset=-2 / threads=12 / lookahead_threads=3 / sliced_threads=0 / nr=0 / decimate=0 / interlaced=0 / bluray_compat=0 / constrained_intra=0 / bframes=11 / b_pyramid=2 / b_adapt=2 / b_bias=0 / direct=3 / weightb=1 / open_gop=0 / weightp=2 / keyint=240 / keyint_min=23 / scenecut=40 / intra_refresh=0 / rc_lookahead=40 / rc=2pass / mbtree=1 / bitrate=2518 / ratetol=1.0 / qcomp=0.60 / qpmin=0 / qpmax=69 / qpstep=4 / cplxblur=20.0 / qblur=0.5 / vbv_maxrate=50000 / vbv_bufsize=62500 / nal_hrd=none / filler=0 / ip_ratio=1.40 / aq=1:1.00
    Language : English
    Default : Yes
    Forced : No

    Audio #1
    ID : 2
    Format : AC-3
    Format/Info : Audio Coding 3
    Mode extension : CM (complete main)
    Format settings, Endianness : Big
    Codec ID : A_AC3
    Duration : 1 h 47 min
    Bit rate mode : Constant
    Bit rate : 384 kb/s
    Channel(s) : 6 channels
    Channel positions : Front: L C R, Side: L R, LFE
    Sampling rate : 48.0 kHz
    Frame rate : 31.250 FPS (1536 spf)
    Compression mode : Lossy
    Stream size : 295 MiB (11%)
    Language : Russian
    Default : Yes
    Forced : No

    Audio #2
    ID : 3
    Format : AC-3
    Format/Info : Audio Coding 3
    Mode extension : CM (complete main)
    Format settings, Endianness : Big
    Codec ID : A_AC3
    Duration : 1 h 47 min
    Bit rate mode : Constant
    Bit rate : 448 kb/s
    Channel(s) : 6 channels
    Channel positions : Front: L C R, Side: L R, LFE
    Sampling rate : 48.0 kHz
    Frame rate : 31.250 FPS (1536 spf)
    Compression mode : Lossy
    Stream size : 344 MiB (13%)
    Language : English
    Default : No
    Forced : No

    Text #1
    ID : 4
    Format : UTF-8
    Codec ID : S_TEXT/UTF8
    Codec ID/Info : UTF-8 Plain Text
    Duration : 1 h 36 min
    Bit rate : 70 b/s
    Count of elements : 1477
    Stream size : 50.2 KiB (0%)
    Title : Full
    Language : English
    Default : No
    Forced : No

    Text #2
    ID : 5
    Format : UTF-8
    Codec ID : S_TEXT/UTF8
    Codec ID/Info : UTF-8 Plain Text
    Duration : 1 h 36 min
    Bit rate : 78 b/s
    Count of elements : 1654
    Stream size : 55.8 KiB (0%)
    Title : SDH
    Language : English
    Default : No
    Forced : No

    Menu
    00:00:00.000 : en:00:00:00.000
    00:07:01.212 : en:00:07:01.212
    00:12:32.627 : en:00:12:32.627
    00:19:34.465 : en:00:19:34.465
    00:27:17.219 : en:00:27:17.219
    00:34:52.632 : en:00:34:52.632
    00:44:29.834 : en:00:44:29.834
    00:48:04.924 : en:00:48:04.924
    00:53:47.599 : en:00:53:47.599
    00:58:05.148 : en:00:58:05.148
    01:05:44.607 : en:01:05:44.607
    01:10:06.869 : en:01:10:06.869
    01:16:02.933 : en:01:16:02.933
    01:20:44.381 : en:01:20:44.381
    01:27:37.669 : en:01:27:37.669
    01:31:37.826 : en:01:31:37.826

8.7 из 10
голосов: 7
/10
/10
schultz 1-01-2017, 20:07
Информация
Посетители, находящиеся в группе Гости, не могут оставлять комментарии к данной публикации.