Панель пользователя
Регистрация

Воспользуйтесь социальными сетями для входа на https://freerutor.com

vk odnoklassniki facebook mailru yandex google
Рекомендуем
загрузка...
Счетчик
Голосуй за нас
Популярное
Товары интернет магазина

Плохой Санта 2 (2016) BDRip 1080p | Расширенная версия | Д.Пучков (Гоблин) + iTunes

Плохой Санта 2 (2016) BDRip 1080p | Расширенная версия | Д.Пучков (Гоблин) + iTunes
Участники торрент обмена
Сидов Пиров Скачали
11 1 257
Характеристика
Размер Файлы
9.13 GB
Релиз группа
Поделиться раздачей
Фильмы (720,1080,Blu-Ray)
Наименование: Плохой Санта 2
Оригинальное наименование: Bad Santa 2
Произведено: США
Категория: драма, комедия, криминал
Режиссер постановщик: Марк Уотерс
В главных ролях: Билли Боб Торнтон, Кэти Бейтс, Тони Кокс, Кристина Хендрикс, Бретт Келли, Райан Хансен, Дженни Зигрино, Джефф Скоурон, Кристина Розато, Майк Старр
Краткое описание: Продолжение новогодних приключений проходимца Вилли, который в канун Рождества, как всегда, переодевается в Санта-Клауса. Ограбить очередной супермаркет в этом наряде не представляет никаких проблем. Но в Рождество случаются всякие чудеса. Каким оно будет для Вилли на этот раз?
  • Видео данные: MPEG-4 AVC, 11.5 Mбит/с, 1920x1044
    Аудио данные: Русский (AC3, 6 ch, 384 Кбит/с), английский (DTS, 6 ch, 1510 Кбит/с)
    Перевод: Профессиональное (Д.Пучков Гоблин - без цензуры) + Дублированное (с цензурой) [iTunes]
    Продолжительность: 01:34:50
  • Плохой Санта 2 (2016) BDRip 1080p | Расширенная версия | Д.Пучков (Гоблин) + iTunes Плохой Санта 2 (2016) BDRip 1080p | Расширенная версия | Д.Пучков (Гоблин) + iTunes Плохой Санта 2 (2016) BDRip 1080p | Расширенная версия | Д.Пучков (Гоблин) + iTunes
  • General
    Unique ID : 196001636799389598156395330972509626543 (0x93748ACA15FB2374B5AB998B90D560AF)
    Complete name : G:\Video\Bad.Santa.2.2016.UNRATED.D.AVO.BDRip.1080p.ExKinoRay.mkv
    Format : Matroska
    Format version : Version 4 / Version 2
    File size : 9.13 GiB
    Duration : 1 h 34 min
    Overall bit rate : 13.8 Mb/s
    Encoded date : UTC 2017-02-14 05:14:15
    Writing application : mkvmerge v8.3.0 ('Over the Horizon') 64bit
    Writing library : libebml v1.3.1 + libmatroska v1.4.2

    Video
    ID : 1
    Format : AVC
    Format/Info : Advanced Video Codec
    Format profile : High@L4.1
    Format settings, CABAC : Yes
    Format settings, ReFrames : 4 frames
    Codec ID : V_MPEG4/ISO/AVC
    Duration : 1 h 34 min
    Bit rate : 11.5 Mb/s
    Width : 1 920 pixels
    Height : 1 044 pixels
    Display aspect ratio : 1.85:1
    Frame rate mode : Constant
    Frame rate : 23.976 (24000/1001) FPS
    Color space : YUV
    Chroma subsampling : 4:2:0
    Bit depth : 8 bits
    Scan type : Progressive
    Bits/(Pixel*Frame) : 0.239
    Stream size : 7.62 GiB (83%)
    Writing library : x264 core 148 r2597 e86f3a1
    Encoding settings : cabac=1 / ref=4 / deblock=1:-3:-3 / analyse=0x3:0x133 / me=umh / subme=11 / psy=1 / psy_rd=1.00:0.00 / mixed_ref=1 / me_range=48 / chroma_me=1 / trellis=2 / 8x8dct=1 / cqm=0 / deadzone=21,11 / fast_pskip=0 / chroma_qp_offset=-2 / threads=12 / lookahead_threads=3 / sliced_threads=0 / nr=0 / decimate=0 / interlaced=0 / bluray_compat=0 / constrained_intra=0 / bframes=11 / b_pyramid=2 / b_adapt=2 / b_bias=0 / direct=3 / weightb=1 / open_gop=0 / weightp=2 / keyint=240 / keyint_min=24 / scenecut=40 / intra_refresh=0 / rc_lookahead=60 / rc=crf / mbtree=0 / crf=18.4 / qcomp=0.70 / qpmin=0 / qpmax=69 / qpstep=4 / vbv_maxrate=50000 / vbv_bufsize=40000 / crf_max=0.0 / nal_hrd=none / filler=0 / ip_ratio=1.25 / pb_ratio=1.15 / aq=3:0.85
    Language : English
    Default : Yes
    Forced : No

    Audio #1
    ID : 2
    Format : AC-3
    Format/Info : Audio Coding 3
    Mode extension : CM (complete main)
    Format settings, Endianness : Big
    Codec ID : A_AC3
    Duration : 1 h 34 min
    Bit rate mode : Constant
    Bit rate : 384 kb/s
    Channel(s) : 6 channels
    Channel positions : Front: L C R, Side: L R, LFE
    Sampling rate : 48.0 kHz
    Frame rate : 31.250 FPS (1536 spf)
    Bit depth : 16 bits
    Compression mode : Lossy
    Stream size : 260 MiB (3%)
    Title : Dub
    Language : Russian
    Default : Yes
    Forced : No

    Audio #2
    ID : 3
    Format : AC-3
    Format/Info : Audio Coding 3
    Mode extension : CM (complete main)
    Format settings, Endianness : Big
    Codec ID : A_AC3
    Duration : 1 h 34 min
    Bit rate mode : Constant
    Bit rate : 384 kb/s
    Channel(s) : 6 channels
    Channel positions : Front: L C R, Side: L R, LFE
    Sampling rate : 48.0 kHz
    Frame rate : 31.250 FPS (1536 spf)
    Bit depth : 16 bits
    Compression mode : Lossy
    Stream size : 260 MiB (3%)
    Title : AVO
    Language : Russian
    Default : No
    Forced : No

    Audio #3
    ID : 4
    Format : DTS
    Format/Info : Digital Theater Systems
    Mode : 16
    Format settings, Endianness : Big
    Codec ID : A_DTS
    Duration : 1 h 34 min
    Bit rate mode : Constant
    Bit rate : 1 509 kb/s
    Channel(s) : 6 channels
    Channel positions : Front: L C R, Side: L R, LFE
    Sampling rate : 48.0 kHz
    Frame rate : 93.750 FPS (512 spf)
    Bit depth : 24 bits
    Compression mode : Lossy
    Stream size : 1 024 MiB (11%)
    Title : Original
    Language : English
    Default : No
    Forced : No

    Menu
    00:00:00.000 : en:00:00:00.000
    00:05:53.228 : en:00:05:53.228
    00:11:00.743 : en:00:11:00.743
    00:16:22.857 : en:00:16:22.857
    00:20:14.213 : en:00:20:14.213
    00:25:34.700 : en:00:25:34.700
    00:29:40.445 : en:00:29:40.445
    00:33:51.696 : en:00:33:51.696
    00:36:57.132 : en:00:36:57.132
    00:41:20.019 : en:00:41:20.019
    00:44:49.812 : en:00:44:49.812
    00:52:09.334 : en:00:52:09.334
    01:00:33.546 : en:01:00:33.546
    01:05:54.158 : en:01:05:54.158
    01:13:17.977 : en:01:13:17.977
    01:17:48.497 : en:01:17:48.497
    01:21:58.205 : en:01:21:58.205
    01:25:43.221 : en:01:25:43.221
10.0 из 10
голосов: 13
/10
/10
VlaDyka 14-02-2017, 09:03

DENZEL519 | 14-02-2017, 21:37 | Статус: Онлайн

Расширенные сцены не переведены!

Станислав Егоров | 22-01-2017, 11:27 | Статус: Оффлайн

Ради гоблина качну.

foster720p | 22-01-2017, 11:10 | Статус: Оффлайн

Ссылка на скачивание http://freerutor.org/engine/download.php?id=209237
Информация
Посетители, находящиеся в группе Гости, не могут оставлять комментарии к данной публикации.