Панель пользователя
Регистрация

Воспользуйтесь социальными сетями для входа на https://freerutor.com

vk odnoklassniki facebook mailru yandex google
Рекомендуем
Document
Счетчик
Голосуй за нас
Товары интернет магазина
Document

Тролли (2016) BDRip 1080p | Лицензия

Тролли (2016) BDRip 1080p | Лицензия
Участники торрент обмена
Сидов Пиров Скачали
17 0 1264
Характеристика
Размер Файлы
10.79 GB
Релиз группа
Поделиться раздачей
Мультфильмы
Наименование: Тролли
Оригинальное наименование: Trolls
Произведено: США
Категория: мультфильм, мюзикл, фэнтези, комедия, приключения, семейный
Режиссер постановщик: Майк Митчелл, Уолт Дорн
В главных ролях: Анна Кендрик, Зои Дешанель, Джастин Тимберлэйк, Кристин Барански, Джеффри Тэмбор, Кристофер Минц-Плассе, Джеймс Корден, Кунал Нэйэр, Гвен Стефани, Расселл Брэнд
Краткое описание: Отправляясь в увлекательное приключение, которое заведет ее далеко от привычного ей мира, Розочка объединяет усилия с самым мрачным троллем на свете по имени Цветан для достижения успеха в своей смелой миссии спасти ее друзей из тисков зловещих бергенов и их лидера, короля Хрящ Старший. Невероятные приключения Розочки проверят ее силу, покажут ее истинную суть и бросят вызов ее способности ударяться в пение в любой момент.
  • Видео данные: MPEG-4 AVC, 14.0 Мбит/с, 1920x816
    Аудио данные: Русский (DTS, 6 ch, 768 Кбит/с), (AC3, 6 ch, 448 Кбит/с), английский (DTS, 6 ch, 1509 Кбит/с)
    Перевод: Дублированный (лицензия)
    Субтитры: Русские, английские
    Продолжительность: 01:32:48
  • Тролли (2016) BDRip 1080p | Лицензия Тролли (2016) BDRip 1080p | Лицензия Тролли (2016) BDRip 1080p | Лицензия
  • General
    Unique ID : 212209486937805173686189517028872907062 (0x9FA60F7F6559689D81FBCE25BDF36936)
    Complete name : G:\Video\Trolls.2016.BDRip.1080p.ExKinoRay.mkv
    Format : Matroska
    Format version : Version 4 / Version 2
    File size : 10.8 GiB
    Duration : 1 h 32 min
    Overall bit rate : 16.7 Mb/s
    Encoded date : UTC 2017-02-21 22:32:08
    Writing application : mkvmerge v8.3.0 ('Over the Horizon') 64bit
    Writing library : libebml v1.3.1 + libmatroska v1.4.2

    Video
    ID : 1
    Format : AVC
    Format/Info : Advanced Video Codec
    Format profile : High@L4.1
    Format settings, CABAC : Yes
    Format settings, ReFrames : 5 frames
    Codec ID : V_MPEG4/ISO/AVC
    Duration : 1 h 32 min
    Bit rate : 14.0 Mb/s
    Width : 1 920 pixels
    Height : 816 pixels
    Display aspect ratio : 2.35:1
    Frame rate mode : Constant
    Frame rate : 23.976 (24000/1001) FPS
    Color space : YUV
    Chroma subsampling : 4:2:0
    Bit depth : 8 bits
    Scan type : Progressive
    Bits/(Pixel*Frame) : 0.373
    Stream size : 9.03 GiB (84%)
    Writing library : x264 core 142 r2431+42 c69a006 tMod [8-bit@all X86_64]
    Encoding settings : cabac=1 / ref=5 / deblock=1:1:1 / analyse=0x3:0x113 / me=umh / subme=11 / psy=1 / fade_compensate=0.00 / psy_rd=0.40:0.00 / mixed_ref=1 / me_range=48 / chroma_me=1 / trellis=2 / 8x8dct=1 / cqm=0 / deadzone=21,11 / fast_pskip=0 / chroma_qp_offset=-2 / threads=16 / lookahead_threads=2 / sliced_threads=0 / nr=0 / decimate=0 / interlaced=0 / bluray_compat=0 / constrained_intra=0 / fgo=0 / bframes=8 / b_pyramid=2 / b_adapt=2 / b_bias=0 / direct=3 / weightb=1 / open_gop=0 / weightp=2 / keyint=240 / keyint_min=23 / scenecut=40 / intra_refresh=0 / rc_lookahead=150 / rc=2pass / mbtree=0 / bitrate=14000 / ratetol=1.0 / qcomp=0.60 / qpmin=0:0:0 / qpmax=69:69:69 / qpstep=4 / cplxblur=20.0 / qblur=0.5 / vbv_maxrate=62500 / vbv_bufsize=78125 / nal_hrd=none / filler=0 / ip_ratio=1.40 / pb_ratio=1.30 / aq=2:0.60 / aq-sensitivity=10.00 / aq-factor=1.00:1.00:1.00 / aq2=0 / aq3=0
    Language : English
    Default : Yes
    Forced : No
    Color range : Limited
    Color primaries : BT.709
    Transfer characteristics : BT.709
    Matrix coefficients : BT.709

    Audio #1
    ID : 2
    Format : DTS
    Format/Info : Digital Theater Systems
    Mode : 16
    Format settings, Endianness : Big
    Codec ID : A_DTS
    Duration : 1 h 32 min
    Bit rate mode : Constant
    Bit rate : 768 kb/s
    Channel(s) : 6 channels
    Channel positions : Front: L C R, Side: L R, LFE
    Sampling rate : 48.0 kHz
    Frame rate : 93.750 FPS (512 spf)
    Bit depth : 24 bits
    Compression mode : Lossy
    Stream size : 508 MiB (5%)
    Title : Dub [License]
    Language : Russian
    Default : Yes
    Forced : No

    Audio #2
    ID : 3
    Format : AC-3
    Format/Info : Audio Coding 3
    Mode extension : CM (complete main)
    Format settings, Endianness : Big
    Codec ID : A_AC3
    Duration : 1 h 32 min
    Bit rate mode : Constant
    Bit rate : 448 kb/s
    Channel(s) : 6 channels
    Channel positions : Front: L C R, Side: L R, LFE
    Sampling rate : 48.0 kHz
    Frame rate : 31.250 FPS (1536 spf)
    Bit depth : 16 bits
    Compression mode : Lossy
    Stream size : 296 MiB (3%)
    Title : Dub [License]
    Language : Russian
    Default : No
    Forced : No

    Audio #3
    ID : 4
    Format : DTS
    Format/Info : Digital Theater Systems
    Format profile : ES Matrix / Core
    Mode : 16
    Format settings, Endianness : Big
    Codec ID : A_DTS
    Duration : 1 h 32 min
    Bit rate mode : Constant
    Bit rate : 1 509 kb/s
    Channel(s) : 7 channels / 6 channels
    Channel positions : Front: L C R, Side: L R, Back: C, LFE / Front: L C R, Side: L R, LFE
    Sampling rate : 48.0 kHz
    Frame rate : 93.750 FPS (512 spf)
    Bit depth : 24 bits
    Compression mode : Lossy
    Stream size : 997 MiB (9%)
    Title : Original
    Language : English
    Default : No
    Forced : No

    Text #1
    ID : 5
    Format : UTF-8
    Codec ID : S_TEXT/UTF8
    Codec ID/Info : UTF-8 Plain Text
    Duration : 1 h 31 min
    Bit rate : 98 b/s
    Count of elements : 1358
    Stream size : 66.0 KiB (0%)
    Title : Full
    Language : Russian
    Default : No
    Forced : No

    Text #2
    ID : 6
    Format : UTF-8
    Codec ID : S_TEXT/UTF8
    Codec ID/Info : UTF-8 Plain Text
    Duration : 1 h 23 min
    Bit rate : 65 b/s
    Count of elements : 1377
    Stream size : 40.0 KiB (0%)
    Title : Full
    Language : English
    Default : No
    Forced : No

    Menu
    00:00:00.000 : en:1
    00:02:19.472 : en:2
    00:06:21.922 : en:3
    00:10:41.640 : en:4
    00:13:25.595 : en:5
    00:18:33.361 : en:6
    00:22:11.787 : en:7
    00:25:40.078 : en:8
    00:28:52.728 : en:9
    00:32:54.094 : en:10
    00:36:32.103 : en:11
    00:40:55.783 : en:12
    00:44:20.654 : en:13
    00:47:26.965 : en:14
    00:51:26.079 : en:15
    00:55:44.670 : en:16
    00:59:57.756 : en:17
    01:03:16.079 : en:18
    01:05:16.657 : en:19
    01:07:55.524 : en:20
    01:10:24.256 : en:21
    01:13:30.650 : en:22
    01:16:20.236 : en:23
    01:21:43.726 : en:24
8.2 из 10
голосов: 5
bond74 21-02-2017, 23:49

Zakol | 23-12-2016, 00:04 | Статус: Оффлайн

1 - Спасибо за релиз! yes
2 - Субтитры: русские, английские [все отключаемые]
Информация
Посетители, находящиеся в группе Гости, не могут оставлять комментарии к данной публикации.