Панель пользователя
Регистрация

Воспользуйтесь социальными сетями для входа на https://freerutor.com

vk odnoklassniki facebook mailru yandex google
Рекомендуем
загрузка...
Счетчик
Голосуй за нас
Популярное
Товары интернет магазина

Афера под прикрытием (2016) Blu-Ray Remux 1080p | Лицензия

Афера под прикрытием (2016) Blu-Ray Remux 1080p | Лицензия
Участники торрент обмена
Сидов Пиров Скачали
2 0 335
Характеристика
Размер Файлы
20.62 GB
Релиз группа
Поделиться раздачей
Фильмы (720,1080,Blu-Ray)
Название: Афера под прикрытием
Оригинальное название: The Infiltrator
Жанр: Триллер, драма, криминал, биография
Выпущено: Великобритания, Good Films
Режиссер: Брэд Фурман
В ролях: Брайан Крэнстон, Джон Легуизамо, Бенджамин Брэтт, Дайан Крюгер, Джульетт Обри, Эми Райан, Джозеф Гилган, Рубен Очандиано, Юл Васкес, Симон Андреу
Краткое описание: Федеральный агент Боб Мейзур, специалист по внедрению в преступные группировки, ставит себе целью раскрыть схему отмывания денег наркокартеля Пабло Эскобара. В одной команде со вспыльчивым оперативником Эмиром Абреу, а также начинающим агентом Кэти Эртс, исполняющей роль подставной невесты Боба, ему предстоит провернуть самую рискованную операцию под прикрытием в истории.
  • Видео: MPEG-4 AVC, 19.7 Mбит/с, 1920x1080
    Аудио: Русский (DTS-HD MA, 6 ch, 3548 Кбит/с)
    Продолжительность: 2:06:43
    Перевод: Дублированный (Лицензия)
  • Афера под прикрытием (2016) Blu-Ray Remux 1080p | Лицензия Афера под прикрытием (2016) Blu-Ray Remux 1080p | Лицензия Афера под прикрытием (2016) Blu-Ray Remux 1080p | Лицензия
  • MI

    General
    Unique ID : 195518890246527965232036177759416108019 (0x9317918BF68330BF82D0BCAEC58443F3)
    Complete name : F:VideoThe.Infiltrator.2016.D.BDREMUX.1080p.ExKinoRay.mkv
    Format : Matroska
    Format version : Version 4 / Version 2
    File size : 20.6 GiB
    Duration : 2 h 6 min
    Overall bit rate mode : Variable
    Overall bit rate : 23.3 Mb/s
    Movie name : The.Infiltrator.2016 build by ***селезень***
    Encoded date : UTC 2016-12-22 04:36:25
    Writing application : mkvmerge v8.3.0 ('Over the Horizon') 64bit
    Writing library : libebml v1.3.1 + libmatroska v1.4.2

    Video
    ID : 1
    Format : AVC
    Format/Info : Advanced Video Codec
    Format profile : High@L4
    Format settings, CABAC : Yes
    Format settings, ReFrames : 2 frames
    Codec ID : V_MPEG4/ISO/AVC
    Duration : 2 h 6 min
    Bit rate mode : Variable
    Bit rate : 19.7 Mb/s
    Maximum bit rate : 22.0 Mb/s
    Width : 1 920 pixels
    Height : 1 080 pixels
    Display aspect ratio : 16:9
    Frame rate mode : Constant
    Frame rate : 24.000 FPS
    Color space : YUV
    Chroma subsampling : 4:2:0
    Bit depth : 8 bits
    Scan type : Progressive
    Bits/(Pixel*Frame) : 0.397
    Stream size : 17.5 GiB (85%)
    Title : The.Infiltrator.2016 build by ***селезень***
    Language : Russian
    Default : Yes
    Forced : No

    Audio
    ID : 2
    Format : DTS
    Format/Info : Digital Theater Systems
    Format profile : MA / Core
    Mode : 16
    Format settings, Endianness : Big
    Codec ID : A_DTS
    Duration : 2 h 6 min
    Bit rate mode : Variable / Constant
    Bit rate : 3 548 kb/s / 1 509 kb/s
    Channel(s) : 6 channels
    Channel positions : Front: L C R, Side: L R, LFE
    Sampling rate : 48.0 kHz
    Frame rate : 93.750 FPS (512 spf)
    Bit depth : 24 bits
    Compression mode : Lossless / Lossy
    Stream size : 3.14 GiB (15%)
    Title : Dub [License]
    Language : Russian
    Default : Yes
    Forced : No

    Menu
    00:00:00.000 : en:Chapter 1
10.0 из 10
голосов: 3
/10
/10
Alik 22-12-2016, 09:45
Информация
Посетители, находящиеся в группе Гости, не могут оставлять комментарии к данной публикации.