Панель пользователя
Регистрация

Воспользуйтесь социальными сетями для входа на https://freerutor.com

vk odnoklassniki facebook mailru yandex google
Рекомендуем
загрузка...
Счетчик
Голосуй за нас
Популярное
Товары интернет магазина

Аисты (2016) BDRip-AVC | Лицензия

Аисты (2016) BDRip-AVC | Лицензия
Участники торрент обмена
Сидов Пиров Скачали
21 0 916
Характеристика
Размер Файлы
1.85 GB
Релиз группа
Поделиться раздачей
Мультфильмы
Наименование: Аисты
Оригинальное наименование: Storks
Категория: Мультфильм, фэнтези, комедия, приключения, семейный
Произведено: США / Warner Bros. Animation, Warner Animation Group, Stoller Global Solutions
Режиссер постановщик: Николас Столлер, Даг Свитлэнд
В главных ролях: Энди Сэмберг, Кэти Краун, Келси Грэммер, Дженнифер Энистон, Тай Бурелл, Антон Старкман, Кигэн-Майкл Ки, Джордан Пил, Дэнни Трехо, Стив Гликман
Краткое описание: Аисты приносят детей... или, во всяком случае, раньше приносили. Теперь же они занимаются доставкой посылок для огромного сайта интернет-продаж. Джуниор, лучший аист в курьерской компании, должен пойти на повышение, но он случайно активирует машину для создания детей и получает очаровательную, но совершенно незапланированную девочку. Пытаясь доставить эту «посылку» до того, как босс узнает о произошедшем, Джуниор и его подруга Лютик, единственный человек на Горе Аистов, решаются на свою первую доставку ребёнка и отправляются в безумное и насыщенное удивительными открытиями приключение, благодаря которому многие семьи могут стать полными, а аисты - вернуться к своей истинной миссии на Земле.
  • Видео данные: MPEG-4 AVC, 2150 Кбит/с, 1024x428
    Аудио данные: Русский, английский (AC3, 6 ch, 448 Кбит/с)
    Перевод: Дублированный (Лицензия)
    Субтитры: Русские, английские
    Продолжительность: 01:26:57
  • Аисты (2016) BDRip-AVC | Лицензия Аисты (2016) BDRip-AVC | Лицензия Аисты (2016) BDRip-AVC | Лицензия
  • General
    Unique ID : 210809338421858435051700437481518007224 (0x9E9866D8958B5F6CADA026CAEE0C03B8)
    Complete name : D:Storks.2016.D.BDRip.AVC.ExKinoRay.mkv
    Format : Matroska
    Format version : Version 2
    File size : 1.85 GiB
    Duration : 1 h 26 min
    Overall bit rate : 3 049 kb/s
    Movie name : Storks 2016 from ExKinoRay
    Encoded date : UTC 2016-12-20 03:05:12
    Writing application : mkvmerge v7.6.0 ('Garden of Dreams') 32bit built on Feb 11 2015 00:18:47
    Writing library : libebml v1.3.1 + libmatroska v1.4.2

    Video
    ID : 1
    Format : AVC
    Format/Info : Advanced Video Codec
    Format profile : High@L4.1
    Format settings, CABAC : Yes
    Format settings, ReFrames : 13 frames
    Codec ID : V_MPEG4/ISO/AVC
    Duration : 1 h 26 min
    Bit rate : 2 150 kb/s
    Width : 1 024 pixels
    Height : 428 pixels
    Display aspect ratio : 2.40:1
    Frame rate mode : Constant
    Frame rate : 23.976 (23976/1000) FPS
    Color space : YUV
    Chroma subsampling : 4:2:0
    Bit depth : 8 bits
    Scan type : Progressive
    Bits/(Pixel*Frame) : 0.205
    Stream size : 1.27 GiB (69%)
    Title : Enigma
    Writing library : x264 core 144 r2525 40bb568
    Encoding settings : cabac=1 / ref=13 / deblock=1:-2:-2 / analyse=0x3:0x113 / me=umh / subme=10 / psy=1 / psy_rd=1.00:0.05 / mixed_ref=1 / me_range=32 / chroma_me=1 / trellis=2 / 8x8dct=1 / cqm=0 / deadzone=21,11 / fast_pskip=1 / chroma_qp_offset=-3 / threads=12 / lookahead_threads=3 / sliced_threads=0 / nr=0 / decimate=1 / interlaced=0 / bluray_compat=0 / constrained_intra=0 / bframes=10 / b_pyramid=2 / b_adapt=2 / b_bias=0 / direct=3 / weightb=1 / open_gop=0 / weightp=2 / keyint=240 / keyint_min=23 / scenecut=40 / intra_refresh=0 / rc_lookahead=40 / rc=2pass / mbtree=0 / bitrate=2150 / ratetol=1.0 / qcomp=0.60 / qpmin=0 / qpmax=51 / qpstep=4 / cplxblur=20.0 / qblur=0.5 / vbv_maxrate=50000 / vbv_bufsize=62500 / nal_hrd=none / filler=0 / ip_ratio=1.40 / pb_ratio=1.30 / aq=3:0.80
    Language : English
    Default : Yes
    Forced : No
    Color range : Limited
    Color primaries : BT.709
    Transfer characteristics : BT.709
    Matrix coefficients : BT.709

    Audio #1
    ID : 2
    Format : AC-3
    Format/Info : Audio Coding 3
    Mode extension : CM (complete main)
    Format settings, Endianness : Big
    Codec ID : A_AC3
    Duration : 1 h 26 min
    Bit rate mode : Constant
    Bit rate : 448 kb/s
    Channel(s) : 6 channels
    Channel positions : Front: L C R, Side: L R, LFE
    Sampling rate : 48.0 kHz
    Frame rate : 31.250 FPS (1536 spf)
    Compression mode : Lossy
    Stream size : 279 MiB (15%)
    Title : Dub (Лицензия)
    Language : Russian
    Default : Yes
    Forced : No

    Audio #2
    ID : 3
    Format : AC-3
    Format/Info : Audio Coding 3
    Mode extension : CM (complete main)
    Format settings, Endianness : Big
    Codec ID : A_AC3
    Duration : 1 h 26 min
    Bit rate mode : Constant
    Bit rate : 448 kb/s
    Channel(s) : 6 channels
    Channel positions : Front: L C R, Side: L R, LFE
    Sampling rate : 48.0 kHz
    Frame rate : 31.250 FPS (1536 spf)
    Compression mode : Lossy
    Stream size : 279 MiB (15%)
    Language : English
    Default : No
    Forced : No

    Text #1
    ID : 4
    Format : UTF-8
    Codec ID : S_TEXT/UTF8
    Codec ID/Info : UTF-8 Plain Text
    Title : Forced
    Language : Russian
    Default : Yes
    Forced : No

    Text #2
    ID : 5
    Format : UTF-8
    Codec ID : S_TEXT/UTF8
    Codec ID/Info : UTF-8 Plain Text
    Title : Full
    Language : Russian
    Default : No
    Forced : No

    Text #3
    ID : 6
    Format : UTF-8
    Codec ID : S_TEXT/UTF8
    Codec ID/Info : UTF-8 Plain Text
    Title : Full
    Language : English
    Default : No
    Forced : No

    Text #4
    ID : 7
    Format : UTF-8
    Codec ID : S_TEXT/UTF8
    Codec ID/Info : UTF-8 Plain Text
    Title : SDH
    Language : English
    Default : No
    Forced : No

    Menu
    00:00:00.000 : en:Chapter 1
    00:10:26.500 : en:Chapter 2
    00:20:35.733 : en:Chapter 3
    00:30:24.404 : en:Chapter 4
    00:39:30.034 : en:Chapter 5
    00:50:24.478 : en:Chapter 6
    00:59:24.434 : en:Chapter 7
    01:07:06.021 : en:Chapter 8
    01:14:28.296 : en:Chapter 9
    01:20:53.597 : en:Chapter 10
10.0 из 10
голосов: 4
/10
/10
VlaDyka 20-12-2016, 07:14
Информация
Посетители, находящиеся в группе Гости, не могут оставлять комментарии к данной публикации.