Панель пользователя
Регистрация

Воспользуйтесь социальными сетями для входа на https://freerutor.com

vk odnoklassniki facebook mailru yandex google
Рекомендуем
Document
Счетчик
Голосуй за нас
Популярное
загрузка...
Товары интернет магазина

Глубоководный горизонт (2016) BDRip 720p | Лицензия

Глубоководный горизонт (2016) BDRip 720p | Лицензия
Участники торрент обмена
Сидов Пиров Скачали
1 0 678
Характеристика
Размер Файлы
5.83 GB
Релиз группа
Поделиться раздачей
Фильмы (720,1080,Blu-Ray)
Название: Глубоководный горизонт
Оригинальное название: Deepwater Horizon
Жанр: боевик, триллер, драма
Выпущено: США / Lionsgate, Summit Entertainment
Режиссер постановщик: Питер Берг
В главных ролях: Марк Уолберг, Дилан О’Брайен, Кейт Хадсон, Курт Рассел, Джина Родригез, Итан Сапли, Джон Малкович, Джо Крест, Сью-Линн Ансари, Роберт Уокер Браншод
Краткое описание: Отправляясь на очередную вахту и прощаясь с семьями, они не подозревали, что могут не вернуться… Это основанная на реальных событиях история о страшной аварии на нефтяной платформе «Глубоководный горизонт», которая произошла в 2010 году в Мексиканском заливе. Хроника беспримерного мужества и отваги перед лицом одной из самых страшных техногенных катастроф в мировой истории.
  • Видео: MPEG-4 AVC, 6500 kb/s, 1280x534
    Аудио: Russian: / English: AC3, 640 kb/s (6 ch)
    Перевод: Дублированный - Лицензия
    Субтитры: английские
    Продолжительность: 01:47:17
  • Глубоководный горизонт (2016) BDRip 720p | Лицензия Глубоководный горизонт (2016) BDRip 720p | Лицензия Глубоководный горизонт (2016) BDRip 720p | Лицензия
  • General
    Unique ID : 176223212167072812219270376877352199985 (0x84935B2ABCB572C69F1E06E8581AA731)
    Complete name : F:VideoDeepwater.Horizon.2016.D.BDRip.1080p.ExKinoRay.mkv
    Format : Matroska
    Format version : Version 4 / Version 2
    File size : 8.04 GiB
    Duration : 1 h 47 min
    Overall bit rate : 10.7 Mb/s
    Movie name : Deepwater.Horizon.2016 ***селезень***
    Encoded date : UTC 2017-01-27 23:26:10
    Writing application : mkvmerge v8.3.0 ('Over the Horizon') 64bit
    Writing library : libebml v1.3.1 + libmatroska v1.4.2

    Video
    ID : 1
    Format : AVC
    Format/Info : Advanced Video Codec
    Format profile : High@L4.1
    Format settings, CABAC : Yes
    Format settings, ReFrames : 5 frames
    Codec ID : V_MPEG4/ISO/AVC
    Duration : 1 h 47 min
    Bit rate : 9 500 kb/s
    Width : 1 920 pixels
    Height : 800 pixels
    Display aspect ratio : 2.40:1
    Frame rate mode : Constant
    Frame rate : 23.976 (24000/1001) FPS
    Color space : YUV
    Chroma subsampling : 4:2:0
    Bit depth : 8 bits
    Scan type : Progressive
    Bits/(Pixel*Frame) : 0.258
    Stream size : 7.08 GiB (88%)
    Title : Deepwater.Horizon.2016 ***селезень***
    Writing library : x264 core 148 r2597 e86f3a1
    Encoding settings : cabac=1 / ref=5 / deblock=1:0:0 / analyse=0x3:0x113 / me=umh / subme=10 / psy=1 / psy_rd=1.05:0.10 / mixed_ref=1 / me_range=48 / chroma_me=1 / trellis=2 / 8x8dct=1 / cqm=0 / deadzone=21,11 / fast_pskip=0 / chroma_qp_offset=-2 / threads=12 / lookahead_threads=1 / sliced_threads=0 / nr=0 / decimate=1 / interlaced=0 / bluray_compat=0 / constrained_intra=0 / bframes=6 / b_pyramid=2 / b_adapt=2 / b_bias=0 / direct=3 / weightb=1 / open_gop=0 / weightp=2 / keyint=250 / keyint_min=23 / scenecut=40 / intra_refresh=0 / rc=2pass / mbtree=0 / bitrate=9500 / ratetol=2.0 / qcomp=0.70 / qpmin=0 / qpmax=69 / qpstep=4 / cplxblur=20.0 / qblur=0.5 / ip_ratio=1.40 / pb_ratio=1.30 / aq=2:1.00
    Language : English
    Default : Yes
    Forced : No

    Audio #1
    ID : 2
    Format : AC-3
    Format/Info : Audio Coding 3
    Mode extension : CM (complete main)
    Format settings, Endianness : Big
    Codec ID : A_AC3
    Duration : 1 h 47 min
    Bit rate mode : Constant
    Bit rate : 640 kb/s
    Channel(s) : 6 channels
    Channel positions : Front: L C R, Side: L R, LFE
    Sampling rate : 48.0 kHz
    Frame rate : 31.250 FPS (1536 spf)
    Bit depth : 16 bits
    Compression mode : Lossy
    Stream size : 491 MiB (6%)
    Title : Dub [License]
    Language : Russian
    Default : Yes
    Forced : No

    Audio #2
    ID : 3
    Format : AC-3
    Format/Info : Audio Coding 3
    Mode extension : CM (complete main)
    Format settings, Endianness : Big
    Codec ID : A_AC3
    Duration : 1 h 47 min
    Bit rate mode : Constant
    Bit rate : 640 kb/s
    Channel(s) : 6 channels
    Channel positions : Front: L C R, Side: L R, LFE
    Sampling rate : 48.0 kHz
    Frame rate : 31.250 FPS (1536 spf)
    Bit depth : 16 bits
    Compression mode : Lossy
    Stream size : 491 MiB (6%)
    Title : Original
    Language : English
    Default : No
    Forced : No

    Text
    ID : 4
    Format : UTF-8
    Codec ID : S_TEXT/UTF8
    Codec ID/Info : UTF-8 Plain Text
    Duration : 1 h 36 min
    Bit rate : 70 b/s
    Count of elements : 1477
    Stream size : 50.2 KiB (0%)
    Title : Full
    Language : English
    Default : No
    Forced : No

    Menu
    00:00:00.000 : en:00:00:00.000
    00:07:01.212 : en:00:07:01.212
    00:12:32.627 : en:00:12:32.627
    00:19:34.465 : en:00:19:34.465
    00:27:17.219 : en:00:27:17.219
    00:34:52.632 : en:00:34:52.632
    00:44:29.834 : en:00:44:29.834
    00:48:04.924 : en:00:48:04.924
    00:53:47.599 : en:00:53:47.599
    00:58:05.148 : en:00:58:05.148
    01:05:44.607 : en:01:05:44.607
    01:10:06.869 : en:01:10:06.869
    01:16:02.933 : en:01:16:02.933
    01:20:44.381 : en:01:20:44.381
    01:27:37.669 : en:01:27:37.669
    01:31:37.826 : en:01:31:37.826
8.4 из 10
голосов: 12
/10
/10
karta 28-01-2017, 02:42

karta | 29-12-2016, 02:58 | Статус: Оффлайн


ioioioii | 20-12-2016, 04:00 | Статус: Оффлайн

Посмотреть можно, на 1 раз
Информация
Посетители, находящиеся в группе Гости, не могут оставлять комментарии к данной публикации.