Панель пользователя
Регистрация

Воспользуйтесь социальными сетями для входа на https://freerutor.com

vk odnoklassniki facebook mailru yandex google
Рекомендуем
Document
Счетчик
Голосуй за нас
Товары интернет магазина

Ловушка (2016) BDRip 720p | iTunes

Ловушка (2016)  BDRip 720p |  iTunes
Участники торрент обмена
Сидов Пиров Скачали
2 0 679
Характеристика
Размер Файлы
5.27 GB
Поделиться раздачей
Фильмы (720,1080,Blu-Ray)
Наименование: Ловушка
Оригинальное наименование: A Kind of Murder
Произведено: США
Категория: триллер, драма
Режиссер постановщик: Энди Годдард
В главных ролях: Патрик Уилсон, Хейли Беннетт, Джессика Бил, Винсент Картайзер, Эдди Марсан, Радек Лорд, Корри Дэниэли, Мишель Пул, Дженнифер Энскат, Крис Хилл
Краткое описание: Нью-Йорк, шестидесятые годы прошлого века. Стэкхаусы - внешне идеальная семейная пара: молодые, красивые, успешные. Он - удачливый архитектор, она - процветающий риелтор и великолепная хозяйка великолепного дома. На самом деле Уолтер давно думает о разводе, потому что Клара замучила его своими претензиями, истериками, ревностью и угрозами покончить с собой, если он ее оставит. Однажды внимание Уолтера привлекает газетная заметка: женщина, жена букиниста, жестоко убита неподалеку от стоянки автобуса, преступника не нашли. Ему кажется, что убийцей мог быть муж жертвы, хотя у того, казалось бы, надежное алиби. Стекхаус решает с ним встретиться, не предполагая, в какую ловушку угодит...
  • Видео данные: MPEG-4 AVC, 6000 Кбит/с, 1280x688
    Аудио данные: Russian: AC3, 384 kb/s (6 ch) / English: DTS, 1509 kb/s (6 ch)
    Перевод: Дублированный [iTunes]
    Субтитры: Английские
    Продолжительность: 01:35:35
  • Ловушка (2016)  BDRip 720p |  iTunes Ловушка (2016)  BDRip 720p |  iTunes Ловушка (2016)  BDRip 720p |  iTunes
  • Общее
    Уникальный идентификатор : 175458616231071015309799263199875943679 (0x840019AD430BED2A819EE7715CB9CCFF)
    Полное имя : D:\загрузки\LovuSHka.2O16.D.BDRip.720p.mkv
    Формат : Matroska
    Версия формата : Version 2
    Размер файла : 5,27 Гбайт
    Продолжительность : 1 ч. 35 м.
    Общий поток : 7893 Кбит/сек
    Дата кодирования : UTC 2017-03-21 00:08:40
    Программа кодирования : mkvmerge v7.8.0 ('River Man') 32bit built on Apr 3 2015 12:11:22
    Библиотека кодирования : libebml v1.3.1 + libmatroska v1.4.2

    Видео
    Идентификатор : 1
    Формат : AVC
    Формат/Информация : Advanced Video Codec
    Профиль формата : High@L4.1
    Параметр CABAC формата : Да
    Параметр ReFrames формата : 9 кадров
    Идентификатор кодека : V_MPEG4/ISO/AVC
    Продолжительность : 1 ч. 35 м.
    Битрейт : 6000 Кбит/сек
    Ширина : 1280 пикселей
    Высота : 688 пикселей
    Соотношение сторон : 1,85:1
    Режим частоты кадров : Постоянный
    Частота кадров : 23,976 (24000/1001) кадра/сек
    Цветовое пространство : YUV
    Субдискретизация насыщенности : 4:2:0
    Битовая глубина : 8 бит
    Тип развёртки : Прогрессивная
    Бит/(Пиксели*Кадры) : 0.284
    Размер потока : 3,90 Гбайт (74%)
    Библиотека кодирования : x264 core 142 r2431+42 c69a006 tMod [8-bit@all X86_64]
    Настройки программы : cabac=1 / ref=9 / deblock=1:-3:-3 / analyse=0x3:0x113 / me=umh / subme=11 / psy=1 / fade_compensate=0.00 / psy_rd=1.05:1.05 / mixed_ref=1 / me_range=48 / chroma_me=1 / trellis=2 / 8x8dct=1 / cqm=0 / deadzone=21,11 / fast_pskip=0 / chroma_qp_offset=-4 / threads=16 / lookahead_threads=2 / sliced_threads=0 / nr=0 / decimate=0 / interlaced=0 / bluray_compat=0 / constrained_intra=0 / fgo=0 / bframes=8 / b_pyramid=2 / b_adapt=2 / b_bias=0 / direct=3 / weightb=1 / open_gop=0 / weightp=2 / keyint=240 / keyint_min=23 / scenecut=40 / intra_refresh=0 / rc_lookahead=150 / rc=2pass / mbtree=0 / bitrate=6000 / ratetol=1.0 / qcomp=0.80 / qpmin=0:0:0 / qpmax=69:69:69 / qpstep=4 / cplxblur=20.0 / qblur=0.5 / vbv_maxrate=62500 / vbv_bufsize=78125 / nal_hrd=none / filler=0 / ip_ratio=1.30 / pb_ratio=1.20 / aq=2:0.75 / aq-sensitivity=10.00 / aq-factor=1.00:1.00:1.00 / aq2=0 / aq3=0
    Default : Да
    Forced : Нет
    Цветовой диапазон : Limited
    Основные цвета : BT.709
    Характеристики трансфера : BT.709
    Коэффициенты матрицы : BT.709

    Аудио #1
    Идентификатор : 2
    Формат : AC-3
    Формат/Информация : Audio Coding 3
    Расширение режима : CM (complete main)
    Параметр Endianness формата : Big
    Идентификатор кодека : A_AC3
    Продолжительность : 1 ч. 35 м.
    Вид битрейта : Постоянный
    Битрейт : 384 Кбит/сек
    Каналы : 6 каналов
    Расположение каналов : Front: L C R, Side: L R, LFE
    Частота : 48,0 КГц
    Частота кадров : 31,250 кадров/сек (1536 spf)
    Битовая глубина : 16 бит
    Метод сжатия : С потерями
    Размер потока : 263 Мбайт (5%)
    Язык : Russian
    Default : Да
    Forced : Нет

    Аудио #2
    Идентификатор : 3
    Формат : DTS
    Формат/Информация : Digital Theater Systems
    Режим : 16
    Параметр Endianness формата : Big
    Идентификатор кодека : A_DTS
    Продолжительность : 1 ч. 35 м.
    Вид битрейта : Постоянный
    Битрейт : 1509 Кбит/сек
    Каналы : 6 каналов
    Расположение каналов : Front: L C R, Side: L R, LFE
    Частота : 48,0 КГц
    Частота кадров : 93,750 кадра/сек (512 spf)
    Битовая глубина : 16 бит
    Метод сжатия : С потерями
    Размер потока : 1,01 Гбайт (19%)
    Язык : English
    Default : Нет
    Forced : Нет

    Текст
    Идентификатор : 4
    Формат : UTF-8
    Идентификатор кодека : S_TEXT/UTF8
    Идентификатор кодека/Информация : UTF-8 Plain Text
    Язык : English
    Default : Нет
    Forced : Нет

    Меню
    00:00:00.000 : en:00:00:00.000
    00:07:59.104 : en:00:07:59.104
    00:15:02.860 : en:00:15:02.860
    00:23:23.527 : en:00:23:23.527
    00:32:15.934 : en:00:32:15.934
    00:40:10.033 : en:00:40:10.033
    00:49:29.758 : en:00:49:29.758
    00:55:51.890 : en:00:55:51.890
    01:03:48.533 : en:01:03:48.533
    01:10:20.800 : en:01:10:20.800
    01:20:38.375 : en:01:20:38.375
    01:30:33.928 : en:01:30:33.928
6.1 из 10
голосов: 7
foster720p 21-03-2017, 03:16
Информация
Посетители, находящиеся в группе Гости, не могут оставлять комментарии к данной публикации.