Панель пользователя
Регистрация

Воспользуйтесь социальными сетями для входа на https://freerutor.com

vk odnoklassniki facebook mailru yandex google
Рекомендуем
Document
Счетчик
Голосуй за нас
Популярное
загрузка...
Товары интернет магазина

Великолепная семерка (2016) BDRip 720p | Лицензия | R.G.Resident

Великолепная семерка (2016) BDRip 720p | Лицензия | R.G.Resident
Участники торрент обмена
Сидов Пиров Скачали
4 5 1536
Характеристика
Размер Файлы
8.26 GB
Релиз группа
Поделиться раздачей
Фильмы (720,1080,Blu-Ray)
Наименование: Великолепная семерка
Оригинальное наименование: The Magnificent Seven
Категория: боевик, приключения, вестерн
Произведено: США
Режиссер постановщик: Антуан Фукуа
В главных ролях: Дензел Вашингтон, Крис Прэтт, Итэн Хоук, Винсент Д`Онофрио, Ли Бён-хон, Мануэль Рульфо, Мартин Сенсмейер, Хейли Беннетт, Питер Сарсгаард, Люк Граймс
Краткое описание: Семеро отважных искателей приключений встают на защиту жителей маленького городка, угнетаемого бандой грабителей.
  • Видео данные: MPEG-4 AVC, 7879 Кбит/с, 1280x534
    Аудио данные: Русский (AC3, 6 ch, 384 Кбит/с), английский (АС3, 6 ch, 640 Кбит/с)
    Перевод: Дубляж - [Лицензия]
    Продолжительность: 02:12:50
    Субтитры: русские (FORCED), русские (FULL), английские (FULL), английские (SDH)
  • Великолепная семерка (2016) BDRip 720p | Лицензия | R.G.Resident Великолепная семерка (2016) BDRip 720p | Лицензия | R.G.Resident Великолепная семерка (2016) BDRip 720p | Лицензия | R.G.Resident
  • x264 [info]: frame I:2216 Avg QP:12.52 size:179186
    x264 [info]: frame P:43089 Avg QP:15.93 size: 75070
    x264 [info]: frame B:145783 Avg QP:18.45 size: 28925

    General
    Unique ID : 180639228650972562751786108919085753892 (0x87E5D996E999E955AE69F20BC27B6624)
    Complete name : D:\download\The.Magnificent.Seven.2016.BDRip 720p by schultz R.G.Resident.mkv
    Format : Matroska
    Format version : Version 4 / Version 2
    File size : 8.26 GiB
    Duration : 2 h 12 min
    Overall bit rate : 8 905 kb/s
    Encoded date : UTC 2016-12-17 01:53:53
    Writing application : mkvmerge v8.9.0 ('Father Daughter') 64bit
    Writing library : libebml v1.3.3 + libmatroska v1.4.4

    Video
    ID : 1
    Format : AVC
    Format/Info : Advanced Video Codec
    Format profile : High@L4.1
    Format settings, CABAC : Yes
    Format settings, ReFrames : 12 frames
    Codec ID : V_MPEG4/ISO/AVC
    Duration : 2 h 12 min
    Bit rate : 7 879 kb/s
    Width : 1 280 pixels
    Height : 534 pixels
    Display aspect ratio : 2.40:1
    Frame rate mode : Constant
    Frame rate : 23.976 (23976/1000) FPS
    Color space : YUV
    Chroma subsampling : 4:2:0
    Bit depth : 8 bits
    Scan type : Progressive
    Bits/(Pixel*Frame) : 0.481
    Stream size : 7.31 GiB (88%)
    Writing library : x264 core 146 r2538 121396c
    Encoding settings : cabac=1 / ref=12 / deblock=1:-3:-3 / analyse=0x3:0x113 / me=umh / subme=11 / psy=1 / psy_rd=1.00:0.00 / mixed_ref=1 / me_range=48 / chroma_me=1 / trellis=2 / 8x8dct=1 / cqm=0 / deadzone=21,11 / fast_pskip=0 / chroma_qp_offset=-2 / threads=12 / lookahead_threads=3 / sliced_threads=0 / nr=0 / decimate=0 / interlaced=0 / bluray_compat=0 / constrained_intra=0 / bframes=11 / b_pyramid=2 / b_adapt=2 / b_bias=0 / direct=3 / weightb=1 / open_gop=0 / weightp=2 / keyint=240 / keyint_min=23 / scenecut=40 / intra_refresh=0 / rc_lookahead=40 / rc=2pass / mbtree=1 / bitrate=7879 / ratetol=1.0 / qcomp=0.60 / qpmin=0 / qpmax=69 / qpstep=4 / cplxblur=20.0 / qblur=0.5 / vbv_maxrate=50000 / vbv_bufsize=62500 / nal_hrd=none / filler=0 / ip_ratio=1.40 / aq=1:1.00
    Language : English
    Default : Yes
    Forced : No

    Audio #1
    ID : 2
    Format : AC-3
    Format/Info : Audio Coding 3
    Mode extension : CM (complete main)
    Format settings, Endianness : Big
    Codec ID : A_AC3
    Duration : 2 h 12 min
    Bit rate mode : Constant
    Bit rate : 384 kb/s
    Channel(s) : 6 channels
    Channel positions : Front: L C R, Side: L R, LFE
    Sampling rate : 48.0 kHz
    Frame rate : 31.250 FPS (1536 spf)
    Compression mode : Lossy
    Stream size : 365 MiB (4%)
    Language : Russian
    Default : Yes
    Forced : No

    Audio #2
    ID : 3
    Format : AC-3
    Format/Info : Audio Coding 3
    Mode extension : CM (complete main)
    Format settings, Endianness : Big
    Codec ID : A_AC3
    Duration : 2 h 12 min
    Bit rate mode : Constant
    Bit rate : 640 kb/s
    Channel(s) : 6 channels
    Channel positions : Front: L C R, Side: L R, LFE
    Sampling rate : 48.0 kHz
    Frame rate : 31.250 FPS (1536 spf)
    Compression mode : Lossy
    Stream size : 608 MiB (7%)
    Language : English
    Default : No
    Forced : No

    Text #1
    ID : 4
    Format : UTF-8
    Codec ID : S_TEXT/UTF8
    Codec ID/Info : UTF-8 Plain Text
    Duration : 2 h 6 min
    Bit rate : 0 b/s
    Count of elements : 18
    Stream size : 535 Bytes (0%)
    Title : FORCED
    Language : Russian
    Default : Yes
    Forced : No

    Text #2
    ID : 5
    Format : UTF-8
    Codec ID : S_TEXT/UTF8
    Codec ID/Info : UTF-8 Plain Text
    Duration : 2 h 7 min
    Bit rate : 74 b/s
    Count of elements : 1494
    Stream size : 68.9 KiB (0%)
    Title : FULL
    Language : Russian
    Default : No
    Forced : No

    Text #3
    ID : 6
    Format : UTF-8
    Codec ID : S_TEXT/UTF8
    Codec ID/Info : UTF-8 Plain Text
    Duration : 2 h 6 min
    Bit rate : 48 b/s
    Count of elements : 1525
    Stream size : 45.2 KiB (0%)
    Title : FULL
    Language : English
    Default : No
    Forced : No

    Text #4
    ID : 7
    Format : UTF-8
    Codec ID : S_TEXT/UTF8
    Codec ID/Info : UTF-8 Plain Text
    Duration : 2 h 6 min
    Bit rate : 58 b/s
    Count of elements : 1835
    Stream size : 54.0 KiB (0%)
    Title : SDH
    Language : English
    Default : No
    Forced : No

    Menu
    00:00:00.000 : :Chapter 1
    00:04:53.710 : :Chapter 2
    00:11:28.187 : :Chapter 3
    00:18:12.591 : :Chapter 4
    00:25:17.850 : :Chapter 5
    00:31:55.956 : :Chapter 6
    00:36:53.795 : :Chapter 7
    00:42:05.857 : :Chapter 8
    00:50:23.520 : :Chapter 9
    00:59:57.844 : :Chapter 10
    01:06:49.631 : :Chapter 11
    01:16:08.439 : :Chapter 12
    01:23:25.792 : :Chapter 13
    01:34:06.766 : :Chapter 14
    01:44:19.712 : :Chapter 15
    01:54:47.297 : :Chapter 16
6.2 из 10
голосов: 6
/10
/10
schultz 17-12-2016, 06:48
Информация
Посетители, находящиеся в группе Гости, не могут оставлять комментарии к данной публикации.