Панель пользователя
Регистрация

Воспользуйтесь социальными сетями для входа на https://freerutor.com

vk odnoklassniki facebook mailru yandex google
Рекомендуем
Document
Счетчик
Голосуй за нас
Популярное
загрузка...
Товары интернет магазина
загрузка...

Хуже, чем ложь (2016) BDRip-AVC | iTunes | R.G.Resident

Хуже, чем ложь (2016) BDRip-AVC | iTunes | R.G.Resident
Участники торрент обмена
Сидов Пиров Скачали
2 0 409
Характеристика
Размер Файлы
1.73 GB
Релиз группа
Поделиться раздачей
Фильмы (AVC)
Наименование: Хуже, чем ложь
Оригинальное наименование: Misconduct
Категория: триллер, драма
Произведено: США
Режиссер постановщик: Шинтаро Шимосава
В главных ролях: Элис Ив, Малин Акерман, Джулия Стайлз, Аль Пачино, Глен Пауэлл, Энтони Хопкинс, Джош Дюамель, Ли Бён Хон, Крис Маркетт, Шона Гастян
Краткое описание: Когда амбициозный молодой юрист берется за большое дело против влиятельного и безжалостного исполнительного директора крупной фармацевтической компании, он оказывается втянут в мир шантажа и коррупции.
  • Видео данные: MPEG-4 AVC, 1510 Кбит/с, 1024x428
    Аудио данные: Русский (AC3, 6 ch, 384 Кбит/с), английский (АС3, 6 ch, 448 Кбит/с)
    Перевод: Дубляж - [iTunes]
    Продолжительность: 01:45:54
    Субтитры: английские (full), английские (SDH)
  • Хуже, чем ложь (2016) BDRip-AVC | iTunes | R.G.Resident Хуже, чем ложь (2016) BDRip-AVC | iTunes | R.G.Resident Хуже, чем ложь (2016) BDRip-AVC | iTunes | R.G.Resident
  • General
    Unique ID : 239417039405843102595551517169949978316 (0xB41E0B66E57DA9A0B081FF1C5E91AECC)
    Complete name : D:downloadMisconduct.2016.BDRip-AVC by schultz R.G.Resident.mkv
    Format : Matroska
    Format version : Version 4 / Version 2
    File size : 1.73 GiB
    Duration : 1 h 45 min
    Overall bit rate : 2 344 kb/s
    Encoded date : UTC 2016-12-15 17:10:35
    Writing application : mkvmerge v8.9.0 ('Father Daughter') 64bit
    Writing library : libebml v1.3.3 + libmatroska v1.4.4

    Video
    ID : 1
    Format : AVC
    Format/Info : Advanced Video Codec
    Format profile : High@L4.1
    Format settings, CABAC : Yes
    Format settings, ReFrames : 12 frames
    Codec ID : V_MPEG4/ISO/AVC
    Duration : 1 h 45 min
    Bit rate : 1 510 kb/s
    Width : 1 024 pixels
    Height : 428 pixels
    Display aspect ratio : 2.40:1
    Frame rate mode : Constant
    Frame rate : 23.976 (23976/1000) FPS
    Color space : YUV
    Chroma subsampling : 4:2:0
    Bit depth : 8 bits
    Scan type : Progressive
    Bits/(Pixel*Frame) : 0.144
    Stream size : 1.12 GiB (64%)
    Writing library : x264 core 146 r2538 121396c
    Encoding settings : cabac=1 / ref=12 / deblock=1:-3:-3 / analyse=0x3:0x113 / me=umh / subme=11 / psy=1 / psy_rd=1.00:0.00 / mixed_ref=1 / me_range=48 / chroma_me=1 / trellis=2 / 8x8dct=1 / cqm=0 / deadzone=21,11 / fast_pskip=0 / chroma_qp_offset=-2 / threads=12 / lookahead_threads=3 / sliced_threads=0 / nr=0 / decimate=0 / interlaced=0 / bluray_compat=0 / constrained_intra=0 / bframes=11 / b_pyramid=2 / b_adapt=2 / b_bias=0 / direct=3 / weightb=1 / open_gop=0 / weightp=2 / keyint=240 / keyint_min=23 / scenecut=40 / intra_refresh=0 / rc_lookahead=40 / rc=2pass / mbtree=1 / bitrate=1510 / ratetol=1.0 / qcomp=0.60 / qpmin=0 / qpmax=69 / qpstep=4 / cplxblur=20.0 / qblur=0.5 / vbv_maxrate=50000 / vbv_bufsize=62500 / nal_hrd=none / filler=0 / ip_ratio=1.40 / aq=1:1.00
    Language : English
    Default : Yes
    Forced : No

    Audio #1
    ID : 2
    Format : AC-3
    Format/Info : Audio Coding 3
    Mode extension : CM (complete main)
    Format settings, Endianness : Big
    Codec ID : A_AC3
    Duration : 1 h 45 min
    Bit rate mode : Constant
    Bit rate : 384 kb/s
    Channel(s) : 6 channels
    Channel positions : Front: L C R, Side: L R, LFE
    Sampling rate : 48.0 kHz
    Frame rate : 31.250 FPS (1536 spf)
    Compression mode : Lossy
    Stream size : 291 MiB (16%)
    Language : Russian
    Default : Yes
    Forced : Yes

    Audio #2
    ID : 3
    Format : AC-3
    Format/Info : Audio Coding 3
    Mode extension : CM (complete main)
    Format settings, Endianness : Big
    Codec ID : A_AC3
    Duration : 1 h 45 min
    Bit rate mode : Constant
    Bit rate : 448 kb/s
    Channel(s) : 6 channels
    Channel positions : Front: L C R, Side: L R, LFE
    Sampling rate : 48.0 kHz
    Frame rate : 31.250 FPS (1536 spf)
    Compression mode : Lossy
    Stream size : 339 MiB (19%)
    Language : English
    Default : No
    Forced : No

    Text #1
    ID : 4
    Format : UTF-8
    Codec ID : S_TEXT/UTF8
    Codec ID/Info : UTF-8 Plain Text
    Duration : 1 h 40 min
    Bit rate : 56 b/s
    Count of elements : 1178
    Stream size : 41.8 KiB (0%)
    Title : full
    Language : English
    Default : No
    Forced : No

    Text #2
    ID : 5
    Format : UTF-8
    Codec ID : S_TEXT/UTF8
    Codec ID/Info : UTF-8 Plain Text
    Duration : 1 h 40 min
    Bit rate : 58 b/s
    Count of elements : 1278
    Stream size : 43.1 KiB (0%)
    Title : SDH
    Language : English
    Default : No
    Forced : No

    Menu
    00:00:00.000 : en:Chapter 01
    00:09:31.946 : en:Chapter 02
    00:15:35.809 : en:Chapter 03
    00:25:51.925 : en:Chapter 04
    00:34:03.583 : en:Chapter 05
    00:37:49.809 : en:Chapter 06
    00:44:09.855 : en:Chapter 07
    00:50:30.694 : en:Chapter 08
    00:58:21.539 : en:Chapter 09
    01:03:56.165 : en:Chapter 10
    01:11:36.750 : en:Chapter 11
    01:18:43.051 : en:Chapter 12
    01:24:04.205 : en:Chapter 13
    01:29:02.795 : en:Chapter 14
    01:35:34.270 : en:Chapter 15
    01:37:01.273 : en:Chapter 16
10.0 из 10
голосов: 3
/10
/10
schultz 15-12-2016, 20:45

anatolis | 15-12-2016, 21:12 | Статус: Оффлайн

фильм хороший рекомендую!

anatolis | 15-12-2016, 20:58 | Статус: Оффлайн

фильм хороший рекомендую!
Информация
Посетители, находящиеся в группе Гости, не могут оставлять комментарии к данной публикации.