Панель пользователя
Регистрация

Воспользуйтесь социальными сетями для входа на https://freerutor.com

vk odnoklassniki facebook mailru yandex google
Рекомендуем
Document
Счетчик
Голосуй за нас
Товары интернет магазина

Все, что у нас было (2016) BDRip 720p | Лицензия

Все, что у нас было (2016) BDRip 720p | Лицензия
Участники торрент обмена
Сидов Пиров Скачали
1 0 311
Характеристика
Размер Файлы
4.94 GB
Поделиться раздачей
Фильмы (720,1080,Blu-Ray)
Наименование: Все, что у нас было
Оригинальное наименование: All We Had
Произведено: США
Категория: драма
Режиссер постановщик: Кэти Холмс
В главных ролях: Кэти Холмс, Ив Линдли, Ричард Кайнд, Марк Консуэлос, Кэтерин Реис, Джуди Грир, Ричард Петрочелли
Краткое описание: Тринадцатилетняя Рути Кармайкл и ее мама Рита находятся на грани нищеты, несмотря на то, что Рита работает на нескольких работах. Когда домовладелец выкидывает их на улицу, Рита решает использовать свою внешность, чтобы быстро найти бойфренда, который примет их. Рути уговаривает ее уехать, и они отправляются на Восток в поисках лучшей жизни. Во время поездки у них ломается машина, и заканчиваются деньги. Им приходится задержаться в одном маленьком городке, где удача наконец-то возвращается к ним.
  • Видео данные: MPEG-4 AVC, 4476 Kbps, 1280x528
    Аудио данные: Russian: AC3, 640 kb/s (6 ch) / English: DTS, 1510 kb/s (6 ch)
    Перевод: Профессиональный многоголосый [лицензия]
    Продолжительность: 01:45:08
  • Все, что у нас было (2016) BDRip 720p | Лицензия Все, что у нас было (2016) BDRip 720p | Лицензия Все, что у нас было (2016) BDRip 720p | Лицензия
  • Общее
    Уникальный идентификатор : 234776469322519539569977146584621442270 (0xB0A04DA1D466D2B48B9C76037CFCE4DE)
    Полное имя : D:\загрузки\All.We.Had.2016.P.BDRip.720p.mkv
    Формат : Matroska
    Версия формата : Version 4 / Version 2
    Размер файла : 4,94 Гбайт
    Продолжительность : 1 ч. 44 м.
    Общий поток : 6760 Кбит/сек
    Название фильма : Into.the.Badlands.S02E05.720p.WEB-DL.DD5.1.H264-RARBG
    Дата кодирования : UTC 2017-04-21 07:53:42
    Программа кодирования : mkvmerge v8.3.0 ('Over the Horizon') 64bit
    Библиотека кодирования : libebml v1.3.1 + libmatroska v1.4.2

    Видео
    Идентификатор : 1
    Формат : AVC
    Формат/Информация : Advanced Video Codec
    Профиль формата : High@L4.1
    Параметр CABAC формата : Да
    Параметр ReFrames формата : 12 кадров
    Идентификатор кодека : V_MPEG4/ISO/AVC
    Продолжительность : 1 ч. 44 м.
    Битрейт : 4609 Кбит/сек
    Ширина : 1280 пикселей
    Высота : 528 пикселей
    Соотношение сторон : 2,40:1
    Режим частоты кадров : Постоянный
    Частота кадров : 23,976 (24000/1001) кадра/сек
    Цветовое пространство : YUV
    Субдискретизация насыщенности : 4:2:0
    Битовая глубина : 8 бит
    Тип развёртки : Прогрессивная
    Бит/(Пиксели*Кадры) : 0.284
    Размер потока : 3,37 Гбайт (68%)
    Заголовок : jujusoft@HDSky
    Библиотека кодирования : x264 core 148 r2699+6+41 29a38aa Yuuki [8-bit@4:2:0 X86_64][GCC 5.3.0]
    Настройки программы : cabac=1 / ref=12 / deblock=1:-3:-3 / analyse=0x3:0x113 / me=umh / subme=11 / psy=1 / fade_compensate=0.00 / psy_rd=1.00:0.05 / mixed_ref=1 / me_range=32 / chroma_me=1 / trellis=2 / 8x8dct=1 / cqm=0 / deadzone=21,11 / fast_pskip=0 / chroma_qp_offset=-2 / threads=24 / lookahead_threads=4 / sliced_threads=0 / nr=0 / decimate=1 / interlaced=0 / bluray_compat=0 / constrained_intra=0 / fgo=0 / bframes=8 / b_pyramid=2 / b_adapt=2 / b_bias=0 / direct=3 / weightb=1 / open_gop=0 / weightp=2 / keyint=250 / keyint_min=23 / scenecut=40 / intra_refresh=0 / rc=crf / mbtree=0 / crf=15.0000 / qcomp=0.60 / qpmin=0:0:0 / qpmax=69:69:69 / qpstep=4 / ip_ratio=1.40 / pb_ratio=1.30 / aq=3:0.90
    Default : Да
    Forced : Нет

    Аудио #1
    Идентификатор : 2
    Формат : AC-3
    Формат/Информация : Audio Coding 3
    Расширение режима : CM (complete main)
    Параметр Endianness формата : Big
    Идентификатор кодека : A_AC3
    Продолжительность : 1 ч. 44 м.
    Вид битрейта : Постоянный
    Битрейт : 640 Кбит/сек
    Каналы : 6 каналов
    Расположение каналов : Front: L C R, Side: L R, LFE
    Частота : 48,0 КГц
    Частота кадров : 31,250 кадров/сек (1536 spf)
    Битовая глубина : 16 бит
    Метод сжатия : С потерями
    Задержка видео : 3 с. 124 мс.
    Размер потока : 479 Мбайт (9%)
    Язык : Russian
    Default : Да
    Forced : Нет

    Аудио #2
    Идентификатор : 3
    Формат : DTS
    Формат/Информация : Digital Theater Systems
    Режим : 16
    Параметр Endianness формата : Big
    Идентификатор кодека : A_DTS
    Продолжительность : 1 ч. 44 м.
    Вид битрейта : Постоянный
    Битрейт : 1509 Кбит/сек
    Каналы : 6 каналов
    Расположение каналов : Front: L C R, Side: L R, LFE
    Частота : 48,0 КГц
    Частота кадров : 93,750 кадра/сек (512 spf)
    Битовая глубина : 24 бит
    Метод сжатия : С потерями
    Размер потока : 1,10 Гбайт (22%)
    Заголовок : English
    Язык : English
    Default : Нет
    Forced : Нет
5.5 из 10
голосов: 2
karta 21-04-2017, 12:52
Информация
Посетители, находящиеся в группе Гости, не могут оставлять комментарии к данной публикации.