Панель пользователя
Регистрация

Воспользуйтесь социальными сетями для входа на https://freerutor.com

vk odnoklassniki facebook mailru yandex google
Рекомендуем
Document
Счетчик
Голосуй за нас
Товары интернет магазина
Document

Чувство справедливости (2016) BDRip 720p | Лицензия

Чувство справедливости (2016) BDRip 720p | Лицензия
Участники торрент обмена
Сидов Пиров Скачали
0 0 80
Характеристика
Размер Файлы
4.66 GB
Поделиться раздачей
Фильмы (720,1080,Blu-Ray)
Наименование: Чувство справедливости
Оригинальное наименование: Equity
Произведено: США
Категория: драма
Режиссер постановщик: Мира Менон
В главных ролях: Анна Ганн, Джеймс Пьюрфой, Сара Меган Томас, Алисия Райнер, Крэйг Бирко, Маргарет Колин, Нэйт Корддри, Ник Гелфусс, Кэрри Престон, Сэмюэл Рукин
Краткое описание: История старшего инвестиционного банкира, которой вопреки нависшему над ней финансовому скандалу предстоит раскрыть коррупционные схемы.
  • Видео данные: MPEG-4 AVC, 5432 Кбит/с, 1280x692
    Аудио данные: Русский (AC3, 6 ch, 448 Кбит/с), английский (AC3, 6 ch, 640 Кбит/с)
    Перевод: Профессиональный многоголосый [Лицензия]
    Субтитры: Русские, английские
    Продолжительность: 01:40:21
  • Чувство справедливости (2016) BDRip 720p | Лицензия Чувство справедливости (2016) BDRip 720p | Лицензия Чувство справедливости (2016) BDRip 720p | Лицензия
  • Общее
    Уникальный идентификатор : 210734971757386592162585573278609803374 (0x9E8A144950EC073CBFFFF2C1A6C7886E)
    Полное имя : Equity.2016.720p.BluRay.Rus.Eng.mkv
    Формат : Matroska
    Версия формата : Version 4 / Version 2
    Размер файла : 4,66 Гбайт
    Продолжительность : 1 ч. 40 м.
    Общий поток : 6653 Кбит/сек
    Название фильма : Equity (2016)
    Дата кодирования : UTC 2017-02-24 12:46:54
    Программа кодирования : mkvmerge v9.7.1 ('Pandemonium') 64bit
    Библиотека кодирования : libebml v1.3.4 + libmatroska v1.4.5
    DURATION : 01:38:02.232000000
    NUMBER_OF_FRAMES : 1516
    NUMBER_OF_BYTES : 47928
    _STATISTICS_WRITING_APP : mkvmerge v9.7.1 ('Pandemonium') 64bit
    _STATISTICS_WRITING_DATE_UTC : 2017-02-24 12:46:54
    _STATISTICS_TAGS : BPS DURATION NUMBER_OF_FRAMES NUMBER_OF_BYTES

    Видео
    Идентификатор : 1
    Формат : AVC
    Формат/Информация : Advanced Video Codec
    Профиль формата : High@L4.1
    Параметр CABAC формата : Да
    Параметр ReFrames формата : 9 кадров
    Идентификатор кодека : V_MPEG4/ISO/AVC
    Продолжительность : 1 ч. 40 м.
    Битрейт : 5432 Кбит/сек
    Ширина : 1280 пикселей
    Высота : 692 пикселя
    Соотношение сторон : 1,85:1
    Режим частоты кадров : Постоянный
    Частота кадров : 23,976 кадра/сек
    Цветовое пространство : YUV
    Субдискретизация насыщенности : 4:2:0
    Битовая глубина : 8 бит
    Тип развёртки : Прогрессивная
    Бит/(Пиксели*Кадры) : 0.256
    Размер потока : 3,81 Гбайт (82%)
    Заголовок : Equity.2016.720p.BluRay.Rus.Eng
    Библиотека кодирования : x264 core 148 r2721 72d53ab
    Настройки программы : cabac=1 / ref=9 / deblock=1:-3:-3 / analyse=0x3:0x113 / me=umh / subme=10 / psy=1 / psy_rd=1.02:0.00 / mixed_ref=1 / me_range=32 / chroma_me=1 / trellis=2 / 8x8dct=1 / cqm=1 / deadzone=21,11 / fast_pskip=0 / chroma_qp_offset=-1 / threads=12 / lookahead_threads=2 / sliced_threads=0 / nr=0 / decimate=1 / interlaced=0 / bluray_compat=0 / constrained_intra=0 / bframes=8 / b_pyramid=2 / b_adapt=2 / b_bias=0 / direct=3 / weightb=1 / open_gop=0 / weightp=2 / keyint=230 / keyint_min=23 / scenecut=40 / intra_refresh=0 / rc_lookahead=40 / rc=crf / mbtree=0 / crf=14.3 / qcomp=0.61 / qpmin=10 / qpmax=69 / qpstep=4 / vbv_maxrate=62500 / vbv_bufsize=78125 / crf_max=0.0 / nal_hrd=none / filler=0 / ip_ratio=1.30 / pb_ratio=1.20 / aq=1:0.75
    Язык : English
    Default : Да
    Forced : Нет
    DURATION : 01:40:21.015000000
    NUMBER_OF_FRAMES : 144360
    NUMBER_OF_BYTES : 4186105676
    _STATISTICS_WRITING_APP : mkvmerge v9.7.1 ('Pandemonium') 64bit
    _STATISTICS_WRITING_DATE_UTC : 2017-02-24 12:46:54
    _STATISTICS_TAGS : BPS DURATION NUMBER_OF_FRAMES NUMBER_OF_BYTES

    Аудио #1
    Идентификатор : 2
    Формат : AC-3
    Формат/Информация : Audio Coding 3
    Расширение режима : CM (complete main)
    Параметр Endianness формата : Big
    Идентификатор кодека : A_AC3
    Продолжительность : 1 ч. 40 м.
    Вид битрейта : Постоянный
    Битрейт : 448 Кбит/сек
    Каналы : 6 каналов
    Расположение каналов : Front: L C R, Side: L R, LFE
    Частота : 48,0 КГц
    Метод сжатия : С потерями
    Размер потока : 322 Мбайт (7%)
    Заголовок : Dub | DD 5.1 @ 448 kbps - Blu Ray EUR
    Язык : Russian
    Default : Да
    Forced : Нет

    Аудио #2
    Идентификатор : 3
    Формат : AC-3
    Формат/Информация : Audio Coding 3
    Расширение режима : CM (complete main)
    Параметр Endianness формата : Big
    Идентификатор кодека : A_AC3
    Продолжительность : 1 ч. 40 м.
    Вид битрейта : Постоянный
    Битрейт : 640 Кбит/сек
    Каналы : 6 каналов
    Расположение каналов : Front: L C R, Side: L R, LFE
    Частота : 48,0 КГц
    Метод сжатия : С потерями
    Размер потока : 459 Мбайт (10%)
    Язык : English
    Default : Нет
    Forced : Нет

    Текст #1
    Идентификатор : 4
    Формат : UTF-8
    Идентификатор кодека : S_TEXT/UTF8
    Идентификатор кодека/Информация : UTF-8 Plain Text
    Заголовок : Full
    Язык : Russian
    Default : Да
    Forced : Нет

    Текст #2
    Идентификатор : 5
    Формат : UTF-8
    Идентификатор кодека : S_TEXT/UTF8
    Идентификатор кодека/Информация : UTF-8 Plain Text
    Язык : English
    Default : Нет
    Forced : Нет

    Текст #3
    Идентификатор : 6
    Формат : UTF-8
    Идентификатор кодека : S_TEXT/UTF8
    Идентификатор кодека/Информация : UTF-8 Plain Text
    Заголовок : SDH
    Язык : English
    Default : Нет
    Forced : Нет
10.0 из 10
голосов: 1
4.829 172 5.6 1942
karta 24-02-2017, 16:06
Информация
Посетители, находящиеся в группе Гости, не могут оставлять комментарии к данной публикации.