Панель пользователя
Регистрация

Воспользуйтесь социальными сетями для входа на https://freerutor.com

vk odnoklassniki facebook mailru yandex google
Рекомендуем
Document
Счетчик
Голосуй за нас
Товары интернет магазина
Document

Ледокол (2016) BDRip-AVC | Лицензия | R.G.Resident

Ледокол (2016) BDRip-AVC | Лицензия | R.G.Resident
Участники торрент обмена
Сидов Пиров Скачали
16 0 3370
Характеристика
Размер Файлы
2.73 GB
Релиз группа
Поделиться раздачей
Фильмы (AVC)
Наименование: Ледокол
Категория: драма
Произведено: Россия
Режиссер постановщик: Николай Хомерики
В главных ролях: Пётр Фёдоров (Петров), Сергей Пускепалис (Севченко), Анна Михалкова (Галина), Ольга Филимонова (Люда), Александр Яценко (Цимбалистый), Александр Паль (Кукушкин), Виталий Хаев (Банник), Алексей Барабаш (Еремеев), Дмитрий Муляр (Сафонов), Артур Чиргадзе (моряк), Александра Серебрякова (сестра-анастезистка, в титрах не указана), Артур Ваха (врач)
Краткое описание: Основано на реальных событиях. 1985 год. Навстречу ледоколу «Михаил Громов» движется огромный айсберг. Уходя от столкновения с ним, судно попадает в ледовый плен и оказывается в вынужденном дрейфе вблизи побережья Антарктиды. Вокруг зловещая тишина и жуткий холод. Горючее на исходе... Нервы на пределе... И даже если можно было бы уйти - деваться все равно некуда. У командования ледокола нет права на ошибку. Одно неверное решение - и тяжелые льды раздавят судно...
  • Видео данные: MPEG-4 AVC, 2704 Кбит/с, 1024x428
    Аудио данные: Русский (AC3, 6 ch, 448 Кбит/с)
    Перевод: Оригинал [Лицензия]
    Продолжительность: 02:03:57
  • Ледокол (2016) BDRip-AVC | Лицензия | R.G.Resident Ледокол (2016) BDRip-AVC | Лицензия | R.G.Resident Ледокол (2016) BDRip-AVC | Лицензия | R.G.Resident
  • General
    Unique ID : 239452185356840261751581887733379105062 (0xB424D03B29F8405C94EA57DEAEB40126)
    Complete name : D:\download\Ledokol.2016.BDRip-AVC by schultz R.G.Resident.mkv
    Format : Matroska
    Format version : Version 4 / Version 2
    File size : 2.73 GiB
    Duration : 2 h 3 min
    Overall bit rate : 3 154 kb/s
    Encoded date : UTC 2016-12-09 11:10:59
    Writing application : mkvmerge v8.9.0 ('Father Daughter') 64bit
    Writing library : libebml v1.3.3 + libmatroska v1.4.4

    Video
    ID : 1
    Format : AVC
    Format/Info : Advanced Video Codec
    Format profile : High@L4.1
    Format settings, CABAC : Yes
    Format settings, ReFrames : 12 frames
    Codec ID : V_MPEG4/ISO/AVC
    Duration : 2 h 3 min
    Bit rate : 2 704 kb/s
    Width : 1 024 pixels
    Height : 428 pixels
    Display aspect ratio : 2.40:1
    Frame rate mode : Constant
    Frame rate : 24.000 FPS
    Color space : YUV
    Chroma subsampling : 4:2:0
    Bit depth : 8 bits
    Scan type : Progressive
    Bits/(Pixel*Frame) : 0.257
    Stream size : 2.34 GiB (86%)
    Writing library : x264 core 146 r2538 121396c
    Encoding settings : cabac=1 / ref=12 / deblock=1:-3:-3 / analyse=0x3:0x113 / me=umh / subme=11 / psy=1 / psy_rd=1.00:0.00 / mixed_ref=1 / me_range=48 / chroma_me=1 / trellis=2 / 8x8dct=1 / cqm=0 / deadzone=21,11 / fast_pskip=0 / chroma_qp_offset=-2 / threads=12 / lookahead_threads=3 / sliced_threads=0 / nr=0 / decimate=0 / interlaced=0 / bluray_compat=0 / constrained_intra=0 / bframes=11 / b_pyramid=2 / b_adapt=2 / b_bias=0 / direct=3 / weightb=1 / open_gop=0 / weightp=2 / keyint=240 / keyint_min=24 / scenecut=40 / intra_refresh=0 / rc_lookahead=40 / rc=2pass / mbtree=1 / bitrate=2704 / ratetol=1.0 / qcomp=0.60 / qpmin=0 / qpmax=69 / qpstep=4 / cplxblur=20.0 / qblur=0.5 / vbv_maxrate=50000 / vbv_bufsize=62500 / nal_hrd=none / filler=0 / ip_ratio=1.40 / aq=1:1.00
    Language : English
    Default : Yes
    Forced : No

    Audio
    ID : 2
    Format : AC-3
    Format/Info : Audio Coding 3
    Mode extension : CM (complete main)
    Format settings, Endianness : Big
    Codec ID : A_AC3
    Duration : 2 h 3 min
    Bit rate mode : Constant
    Bit rate : 448 kb/s
    Channel(s) : 6 channels
    Channel positions : Front: L C R, Side: L R, LFE
    Sampling rate : 48.0 kHz
    Frame rate : 31.250 FPS (1536 spf)
    Compression mode : Lossy
    Stream size : 397 MiB (14%)
    Language : Russian
    Default : Yes
    Forced : No

    Menu
    00:00:00.000 : ru:Chapter 01
    00:01:27.666 : ru:Chapter 02
    00:14:46.833 : ru:Chapter 03
    00:29:43.208 : ru:Chapter 04
    00:43:48.375 : ru:Chapter 05
    01:00:09.125 : ru:Chapter 06
    01:14:15.625 : ru:Chapter 07
    01:29:17.625 : ru:Chapter 08
    01:47:28.041 : ru:Chapter 09
8.0 из 10
голосов: 3
schultz 9-12-2016, 14:48

scarry | 16-01-2017, 15:25 | Статус: Оффлайн

Из реальных событий сделали сказку. Один раз посмотреть можно. Жутко тихий звук, впрочем как почти у всех релизов от R.G.Resident -16/-20db!
Информация
Посетители, находящиеся в группе Гости, не могут оставлять комментарии к данной публикации.