Панель пользователя
Регистрация

Воспользуйтесь социальными сетями для входа на https://freerutor.com

vk odnoklassniki facebook mailru yandex google
Рекомендуем
загрузка...
Счетчик
Голосуй за нас
Популярное
Товары интернет магазина

Дом странных детей Мисс Перегрин (2016) BDRip-AVC | Лицензия | R.G.Resident

Дом странных детей Мисс Перегрин (2016) BDRip-AVC | Лицензия | R.G.Resident
Участники торрент обмена
Сидов Пиров Скачали
6 0 2209
Характеристика
Размер Файлы
3.66 GB
Релиз группа
Поделиться раздачей
Фильмы (AVC)
Наименование: Дом странных детей Мисс Перегрин
Оригинальное наименование: Miss Peregrine's Home for Peculiar Children
Категория: фэнтези, драма, приключения, семейный
Произведено: США, Великобритания, Бельгия
Режиссер постановщик: Тим Бёртон
В главных ролях: Ева Грин, Эйса Баттерфилд, Сэмюэл Л. Джексон, Джуди Денч, Руперт Эверетт, Эллисон Джэнни, Крис О`Дауд, Теренс Стэмп, Элла Пёрнелл, Финлэй МакМиллан, Лорен МакКрости, Хейден Килер-Стоун, Джорджия Пембертон, Майло Паркер, Раффиелла Чепмен, Пикси Дейвис
Краткое описание: Детство Джейкоба прошло под рассказы дедушки о приюте для необычных детей. Среди его обитателей девочка, которая умела держать в руках огонь, девочка, чьи ноги не касались земли, невидимый мальчик и близнецы, умевшие общаться без слов. Когда дедушка умирает, 16-летний Джейкоб получает загадочное письмо и отправляется на остров, где вырос его дед. Там он находит детей, которых раньше видел только на фотографиях.
  • Видео данные: MPEG-4 AVC, 2784 Кбит/с, 1024x554
    Аудио данные: Русский, украинский, английсий (AC3, 6 ch, 448 Кбит/с)
    Перевод: Дубляж - [Лицензия]
    Продолжительность: 02:06:55
    Субтитры: русские (Full), украинские (Full), английские (Full), английские (SDH)
  • Дом странных детей Мисс Перегрин (2016) BDRip-AVC | Лицензия | R.G.Resident Дом странных детей Мисс Перегрин (2016) BDRip-AVC | Лицензия | R.G.Resident Дом странных детей Мисс Перегрин (2016) BDRip-AVC | Лицензия | R.G.Resident
  • General
    Unique ID : 249512031072344131613872782507031515573 (0xBBB644EB1FCBB1868D5A31E0F81DD1B5)
    Complete name : D:\download\Miss Peregrine's Home for Peculiar Children. 2016. BDRip-AVC by schultz R.G.Resident.mkv
    Format : Matroska
    Format version : Version 4 / Version 2
    File size : 3.66 GiB
    Duration : 2 h 6 min
    Overall bit rate : 4 131 kb/s
    Encoded date : UTC 2016-12-07 11:49:24
    Writing application : mkvmerge v8.9.0 ('Father Daughter') 64bit
    Writing library : libebml v1.3.3 + libmatroska v1.4.4

    Video
    ID : 1
    Format : AVC
    Format/Info : Advanced Video Codec
    Format profile : High@L4.1
    Format settings, CABAC : Yes
    Format settings, ReFrames : 12 frames
    Codec ID : V_MPEG4/ISO/AVC
    Duration : 2 h 6 min
    Bit rate : 2 784 kb/s
    Width : 1 024 pixels
    Height : 554 pixels
    Display aspect ratio : 1.85:1
    Frame rate mode : Constant
    Frame rate : 23.976 (23976/1000) FPS
    Color space : YUV
    Chroma subsampling : 4:2:0
    Bit depth : 8 bits
    Scan type : Progressive
    Bits/(Pixel*Frame) : 0.205
    Stream size : 2.47 GiB (67%)
    Writing library : x264 core 146 r2538 121396c
    Encoding settings : cabac=1 / ref=12 / deblock=1:-3:-3 / analyse=0x3:0x113 / me=umh / subme=11 / psy=1 / psy_rd=1.00:0.00 / mixed_ref=1 / me_range=48 / chroma_me=1 / trellis=2 / 8x8dct=1 / cqm=0 / deadzone=21,11 / fast_pskip=0 / chroma_qp_offset=-2 / threads=12 / lookahead_threads=3 / sliced_threads=0 / nr=0 / decimate=0 / interlaced=0 / bluray_compat=0 / constrained_intra=0 / bframes=11 / b_pyramid=2 / b_adapt=2 / b_bias=0 / direct=3 / weightb=1 / open_gop=0 / weightp=2 / keyint=240 / keyint_min=23 / scenecut=40 / intra_refresh=0 / rc_lookahead=40 / rc=2pass / mbtree=1 / bitrate=2784 / ratetol=1.0 / qcomp=0.60 / qpmin=0 / qpmax=69 / qpstep=4 / cplxblur=20.0 / qblur=0.5 / vbv_maxrate=50000 / vbv_bufsize=62500 / nal_hrd=none / filler=0 / ip_ratio=1.40 / aq=1:1.00
    Language : English
    Default : Yes
    Forced : No

    Audio #1
    ID : 2
    Format : AC-3
    Format/Info : Audio Coding 3
    Mode extension : CM (complete main)
    Format settings, Endianness : Big
    Codec ID : A_AC3
    Duration : 2 h 6 min
    Bit rate mode : Constant
    Bit rate : 448 kb/s
    Channel(s) : 6 channels
    Channel positions : Front: L C R, Side: L R, LFE
    Sampling rate : 48.0 kHz
    Frame rate : 31.250 FPS (1536 spf)
    Compression mode : Lossy
    Stream size : 407 MiB (11%)
    Language : Russian
    Default : Yes
    Forced : No

    Audio #2
    ID : 3
    Format : AC-3
    Format/Info : Audio Coding 3
    Mode extension : CM (complete main)
    Format settings, Endianness : Big
    Codec ID : A_AC3
    Duration : 2 h 6 min
    Bit rate mode : Constant
    Bit rate : 448 kb/s
    Channel(s) : 6 channels
    Channel positions : Front: L C R, Side: L R, LFE
    Sampling rate : 48.0 kHz
    Frame rate : 31.250 FPS (1536 spf)
    Compression mode : Lossy
    Stream size : 407 MiB (11%)
    Language : Ukrainian
    Default : No
    Forced : No

    Audio #3
    ID : 4
    Format : AC-3
    Format/Info : Audio Coding 3
    Mode extension : CM (complete main)
    Format settings, Endianness : Big
    Codec ID : A_AC3
    Duration : 2 h 6 min
    Bit rate mode : Constant
    Bit rate : 448 kb/s
    Channel(s) : 6 channels
    Channel positions : Front: L C R, Side: L R, LFE
    Sampling rate : 48.0 kHz
    Frame rate : 31.250 FPS (1536 spf)
    Compression mode : Lossy
    Stream size : 407 MiB (11%)
    Language : English
    Default : No
    Forced : No

    Text #1
    ID : 5
    Format : UTF-8
    Codec ID : S_TEXT/UTF8
    Codec ID/Info : UTF-8 Plain Text
    Duration : 2 h 5 min
    Bit rate : 74 b/s
    Count of elements : 1402
    Stream size : 69.1 KiB (0%)
    Title : Full
    Language : Russian
    Default : No
    Forced : No

    Text #2
    ID : 6
    Format : UTF-8
    Codec ID : S_TEXT/UTF8
    Codec ID/Info : UTF-8 Plain Text
    Duration : 2 h 5 min
    Bit rate : 77 b/s
    Count of elements : 1412
    Stream size : 71.4 KiB (0%)
    Title : Full
    Language : Ukrainian
    Default : No
    Forced : No

    Text #3
    ID : 7
    Format : UTF-8
    Codec ID : S_TEXT/UTF8
    Codec ID/Info : UTF-8 Plain Text
    Duration : 2 h 1 min
    Bit rate : 48 b/s
    Count of elements : 1570
    Stream size : 43.5 KiB (0%)
    Title : Full
    Language : English
    Default : No
    Forced : No

    Text #4
    ID : 8
    Format : UTF-8
    Codec ID : S_TEXT/UTF8
    Codec ID/Info : UTF-8 Plain Text
    Duration : 2 h 1 min
    Bit rate : 53 b/s
    Count of elements : 1804
    Stream size : 47.8 KiB (0%)
    Title : SDH
    Language : English
    Default : No
    Forced : No

    Menu
    00:00:00.000 : en:Chapter 01
    00:03:40.803 : en:Chapter 02
    00:08:38.017 : en:Chapter 03
    00:13:06.827 : en:Chapter 04
    00:15:26.550 : en:Chapter 05
    00:19:47.477 : en:Chapter 06
    00:23:23.652 : en:Chapter 07
    00:27:47.040 : en:Chapter 08
    00:31:06.447 : en:Chapter 09
    00:34:36.783 : en:Chapter 10
    00:39:34.997 : en:Chapter 11
    00:42:42.810 : en:Chapter 12
    00:46:05.637 : en:Chapter 13
    00:48:36.496 : en:Chapter 14
    00:54:16.461 : en:Chapter 15
    00:57:21.479 : en:Chapter 16
    01:02:03.261 : en:Chapter 17
    01:08:20.846 : en:Chapter 18
    01:14:29.006 : en:Chapter 19
    01:18:54.062 : en:Chapter 20
    01:24:15.300 : en:Chapter 21
    01:28:42.442 : en:Chapter 22
    01:33:11.752 : en:Chapter 23
    01:36:29.033 : en:Chapter 24
    01:40:43.787 : en:Chapter 25
    01:46:09.237 : en:Chapter 26
    01:53:35.308 : en:Chapter 27
    02:00:34.393 : en:Chapter 28
10.0 из 10
голосов: 5
/10
/10
schultz 7-12-2016, 16:04
Информация
Посетители, находящиеся в группе Гости, не могут оставлять комментарии к данной публикации.