Панель пользователя
Регистрация

Воспользуйтесь социальными сетями для входа на https://freerutor.com

vk odnoklassniki facebook mailru yandex google
Рекомендуем
загрузка...
Счетчик
Голосуй за нас
Популярное
Товары интернет магазина

Дом странных детей Мисс Перегрин (2016) Blu-Ray Remux 1080p | Лицензия

Дом странных детей Мисс Перегрин (2016) Blu-Ray Remux 1080p  | Лицензия
Участники торрент обмена
Сидов Пиров Скачали
2 0 1839
Характеристика
Размер Файлы
27.21 GB
Поделиться раздачей
Фильмы (720,1080,Blu-Ray)
Название: Дом странных детей Мисс Перегрин
Оригинальное название: Miss Peregrine's Home for Peculiar Children
Жанр: фэнтези, приключения
Выпущено: США, Бельгия, Великобритания / Tim Burton Productions
Режиссер постановщик: Тим Бёртон
В главных ролях: Ева Грин, Сэмюэл Л. Джексон, Эйса Баттерфилд, Эллисон Дженни, Ким Диккенс, Элла Пернелл, Крис О’Дауд, Джуди Денч, Руперт Эверетт, Теренс Стэмп
Краткое описание: Детство Джейкоба прошло под рассказы дедушки о приюте для необычных детей. Среди его обитателей девочка, которая умела держать в руках огонь, девочка, чьи ноги не касались земли, невидимый мальчик и близнецы, умевшие общаться без слов. Когда дедушка умирает, 16-летний Джейкоб получает загадочное письмо и отправляется на остров, где вырос его дед. Там он находит детей, которых раньше видел только на фотографиях.
  • Видео: MPEG-4 AVC, 24621 Кбит/с, 1920x1080
    Аудио: Русский (DTS, 6 ch, 768 Кбит/с) (AC3, 6 ch, 448 Кбит/с), украинский (AC3, 6 ch, 448 Кбит/с), английский (DTS-HD MA, 8 ch, 4528 Кбит/с)
    Продолжительность: 02:06:55
    Перевод: Дублированный (лицензия)
    Субтитры: Русские, английские, украинские
  • Дом странных детей Мисс Перегрин (2016) Blu-Ray Remux 1080p  | Лицензия Дом странных детей Мисс Перегрин (2016) Blu-Ray Remux 1080p  | Лицензия Дом странных детей Мисс Перегрин (2016) Blu-Ray Remux 1080p  | Лицензия
  • Mediainfo

    Общее
    Уникальный идентификатор : 236216259316893926578808127269571973554 (0xB1B598C2713D2616AAFD6A1B47ACD1B2)
    Полное имя : Miss Peregrines.2016.BDRemux.mkv
    Формат : Matroska
    Версия формата : Version 2
    Размер файла : 27,2 Гбайт
    Продолжительность : 2 ч. 6 м.
    Режим общего битрейта : Переменный
    Общий поток : 30,7 Мбит/сек
    Название фильма : Miss.Peregrines.Home.for.Peculiar.Children.2016.BDRemux.1080p
    Дата кодирования : UTC 2016-12-06 17:58:05
    Программа кодирования : mkvmerge v4.0.0 ('The Stars were mine') сборка от Jun 6 2010 16:18:42
    Библиотека кодирования : libebml v1.0.0 + libmatroska v1.0.0

    Видео
    Идентификатор : 1
    Формат : AVC
    Формат/Информация : Advanced Video Codec
    Профиль формата : High@L4.1
    Параметр CABAC формата : Да
    Параметр ReFrames формата : 4 кадра
    Идентификатор кодека : V_MPEG4/ISO/AVC
    Продолжительность : 2 ч. 6 м.
    Вид битрейта : Переменный
    Максимальный битрейт : 35,0 Мбит/сек
    Ширина : 1920 пикселей
    Высота : 1080 пикселей
    Соотношение сторон : 16:9
    Режим частоты кадров : Постоянный
    Частота кадров : 23,976 (24000/1001) кадра/сек
    Цветовое пространство : YUV
    Субдискретизация насыщенности : 4:2:0
    Битовая глубина : 8 бит
    Тип развёртки : Прогрессивная
    Заголовок : Miss.Peregrines.Home.for.Peculiar.Children.2016.1080p.BluRay.REMUX.AVC.DTS-HD.MA.7.1-FGT
    Язык : English
    Default : Нет
    Forced : Нет

    Аудио #1
    Идентификатор : 2
    Формат : DTS
    Формат/Информация : Digital Theater Systems
    Режим : 16
    Параметр Endianness формата : Big
    Идентификатор кодека : A_DTS
    Продолжительность : 2 ч. 6 м.
    Вид битрейта : Постоянный
    Битрейт : 768 Кбит/сек
    Каналы : 6 каналов
    Расположение каналов : Front: L C R, Side: L R, LFE
    Частота : 48,0 КГц
    Частота кадров : 93,750 кадра/сек (512 spf)
    Битовая глубина : 24 бит
    Метод сжатия : С потерями
    Задержка видео : 11 мс.
    Размер потока : 697 Мбайт (3%)
    Заголовок : DUB_ BD CEE
    Язык : Russian
    Default : Да
    Forced : Да

    Аудио #2
    Идентификатор : 3
    Формат : AC-3
    Формат/Информация : Audio Coding 3
    Расширение режима : CM (complete main)
    Параметр Endianness формата : Big
    Идентификатор кодека : A_AC3
    Продолжительность : 2 ч. 6 м.
    Вид битрейта : Постоянный
    Битрейт : 448 Кбит/сек
    Каналы : 6 каналов
    Расположение каналов : Front: L C R, Side: L R, LFE
    Частота : 48,0 КГц
    Частота кадров : 31,250 кадров/сек (1536 spf)
    Битовая глубина : 16 бит
    Метод сжатия : С потерями
    Размер потока : 407 Мбайт (1%)
    Заголовок : DUB
    Язык : Russian
    Default : Нет
    Forced : Нет

    Аудио #3
    Идентификатор : 4
    Формат : AC-3
    Формат/Информация : Audio Coding 3
    Расширение режима : CM (complete main)
    Параметр Endianness формата : Big
    Идентификатор кодека : A_AC3
    Продолжительность : 2 ч. 6 м.
    Вид битрейта : Постоянный
    Битрейт : 448 Кбит/сек
    Каналы : 6 каналов
    Расположение каналов : Front: L C R, Side: L R, LFE
    Частота : 48,0 КГц
    Частота кадров : 31,250 кадров/сек (1536 spf)
    Битовая глубина : 16 бит
    Метод сжатия : С потерями
    Размер потока : 407 Мбайт (1%)
    Заголовок : DUB_ BD CEE
    Язык : Ukrainian
    Default : Нет
    Forced : Нет

    Аудио #4
    Идентификатор : 5
    Формат : DTS
    Формат/Информация : Digital Theater Systems
    Профиль формата : MA / ES Matrix / Core
    Режим : 16
    Параметр Endianness формата : Big
    Идентификатор кодека : A_DTS
    Продолжительность : 2 ч. 6 м.
    Вид битрейта : Переменный / Постоянный / Постоянный
    Битрейт : Неизвестно / 1509 Кбит/сек / 1509 Кбит/сек
    Каналы : 8 каналов / 7 каналов / 6 каналов
    Расположение каналов : Front: L C R, Side: L R, Back: L R, LFE / Front: L C R, Side: L R, Back: C, LFE / Front: L C R, Side: L R, LFE
    Частота : 48,0 КГц
    Частота кадров : 93,750 кадра/сек (512 spf)
    Битовая глубина : 24 бит
    Метод сжатия : Без потерь / Lossy / Lossy
    Язык : English
    Default : Нет
    Forced : Нет

    Текст #1
    Идентификатор : 6
    Формат : UTF-8
    Идентификатор кодека : S_TEXT/UTF8
    Идентификатор кодека/Информация : UTF-8 Plain Text
    Заголовок : Full
    Язык : Russian
    Default : Нет
    Forced : Нет

    Текст #2
    Идентификатор : 7
    Формат : UTF-8
    Идентификатор кодека : S_TEXT/UTF8
    Идентификатор кодека/Информация : UTF-8 Plain Text
    Заголовок : Full
    Язык : Ukrainian
    Default : Нет
    Forced : Нет

    Текст #3
    Идентификатор : 8
    Формат : UTF-8
    Идентификатор кодека : S_TEXT/UTF8
    Идентификатор кодека/Информация : UTF-8 Plain Text
    Заголовок : Full
    Язык : English
    Default : Нет
    Forced : Нет

    Текст #4
    Идентификатор : 9
    Формат : UTF-8
    Идентификатор кодека : S_TEXT/UTF8
    Идентификатор кодека/Информация : UTF-8 Plain Text
    Заголовок : SDH
    Язык : English
    Default : Нет
    Forced : Нет

    Меню
    00:00:00.000 : en:Chapter 01
    00:03:40.803 : en:Chapter 02
    00:08:38.017 : en:Chapter 03
    00:13:06.827 : en:Chapter 04
    00:15:26.550 : en:Chapter 05
    00:19:47.477 : en:Chapter 06
    00:23:23.652 : en:Chapter 07
    00:27:47.040 : en:Chapter 08
    00:31:06.447 : en:Chapter 09
    00:34:36.783 : en:Chapter 10
    00:39:34.997 : en:Chapter 11
    00:42:42.810 : en:Chapter 12
    00:46:05.637 : en:Chapter 13
    00:48:36.496 : en:Chapter 14
    00:54:16.461 : en:Chapter 15
    00:57:21.479 : en:Chapter 16
    01:02:03.261 : en:Chapter 17
    01:08:20.846 : en:Chapter 18
    01:14:29.006 : en:Chapter 19
    01:18:54.062 : en:Chapter 20
    01:24:15.300 : en:Chapter 21
    01:28:42.442 : en:Chapter 22
    01:33:11.752 : en:Chapter 23
    01:36:29.033 : en:Chapter 24
    01:40:43.787 : en:Chapter 25
    01:46:09.237 : en:Chapter 26
    01:53:35.308 : en:Chapter 27
    02:00:34.393 : en:Chapter 28
10.0 из 10
голосов: 6
/10
/10
Alik 6-12-2016, 22:05
Информация
Посетители, находящиеся в группе Гости, не могут оставлять комментарии к данной публикации.