Панель пользователя
Регистрация

Воспользуйтесь социальными сетями для входа на https://freerutor.com

vk odnoklassniki facebook mailru yandex google
Рекомендуем
загрузка...
Счетчик
Голосуй за нас
Популярное
Товары интернет магазина

Большой и добрый великан (2016) BDRip 720p | iTunes | R.G.Resident

Большой и добрый великан (2016) BDRip 720p | iTunes | R.G.Resident
Участники торрент обмена
Сидов Пиров Скачали
5 0 446
Характеристика
Размер Файлы
4.28 GB
Релиз группа
Поделиться раздачей
Фильмы (720,1080,Blu-Ray)
Наименование: Большой и добрый великан
Оригинальное наименование: The BFG
Категория: фэнтези, приключения, семейный
Произведено: Великобритания, Канада, США
Режиссер постановщик: Стивен Спилберг
В главных ролях: Марк Райлэнс, Руби Барнхилл, Пенелопа Уилтон, Джемейн Клемент, Ребекка Холл, Рейф Сполл, Билл Хейдер, Оулавюр Дарри Оулафссон, Адам Годли, Майкл Адамуэйт
Краткое описание: В центре истории девочка по имени Софи, которая не смогла заснуть до полуночи и в окошко увидела огромного великана, который подходил к соседним домам и начинал дуть в окна спален. В полном соответствии со старинными поверьями и детскими страшилками, великан увидел Софи и унес к себе домой, в страну великанов.
  • Видео данные: MPEG-4 AVC, 4208 Кбит/с, 1280x536
    Аудио данные: Русский (AC3, 6 ch, 384 Кбит/с), английский (АС3, 6 ch, 640 Кбит/с)
    Перевод: Дубляж - [iTunes]
    Продолжительность: 01:57:10
    Субтитры: русские (Forced), русские (full), английские (full), английские (SDH)
  • Большой и добрый великан (2016) BDRip 720p | iTunes | R.G.Resident Большой и добрый великан (2016) BDRip 720p | iTunes | R.G.Resident Большой и добрый великан (2016) BDRip 720p | iTunes | R.G.Resident
  • x264 [info]: frame I:1105 Avg QP:11.22 size:159493
    x264 [info]: frame P:43301 Avg QP:14.95 size: 48379
    x264 [info]: frame B:124050 Avg QP:18.09 size: 11439

    General
    Unique ID : 180890487130649300895898076345794013779 (0x88163D96C7B20EE4AA6693A37757AA53)
    Complete name : D:\download\The.BFG.2016.BDRip 720p by schultz R.G.Resident.mkv
    Format : Matroska
    Format version : Version 4 / Version 2
    File size : 4.28 GiB
    Duration : 1 h 57 min
    Overall bit rate : 5 225 kb/s
    Encoded date : UTC 2016-12-06 17:15:26
    Writing application : mkvmerge v8.9.0 ('Father Daughter') 64bit
    Writing library : libebml v1.3.3 + libmatroska v1.4.4

    Video
    ID : 1
    Format : AVC
    Format/Info : Advanced Video Codec
    Format profile : High@L4.1
    Format settings, CABAC : Yes
    Format settings, ReFrames : 12 frames
    Codec ID : V_MPEG4/ISO/AVC
    Duration : 1 h 57 min
    Bit rate : 4 208 kb/s
    Width : 1 280 pixels
    Height : 536 pixels
    Display aspect ratio : 2.40:1
    Frame rate mode : Constant
    Frame rate : 23.976 (23976/1000) FPS
    Color space : YUV
    Chroma subsampling : 4:2:0
    Bit depth : 8 bits
    Scan type : Progressive
    Bits/(Pixel*Frame) : 0.256
    Stream size : 3.44 GiB (80%)
    Writing library : x264 core 146 r2538 121396c
    Encoding settings : cabac=1 / ref=12 / deblock=1:-3:-3 / analyse=0x3:0x113 / me=umh / subme=11 / psy=1 / psy_rd=1.00:0.00 / mixed_ref=1 / me_range=48 / chroma_me=1 / trellis=2 / 8x8dct=1 / cqm=0 / deadzone=21,11 / fast_pskip=0 / chroma_qp_offset=-2 / threads=12 / lookahead_threads=3 / sliced_threads=0 / nr=0 / decimate=0 / interlaced=0 / bluray_compat=0 / constrained_intra=0 / bframes=11 / b_pyramid=2 / b_adapt=2 / b_bias=0 / direct=3 / weightb=1 / open_gop=0 / weightp=2 / keyint=240 / keyint_min=23 / scenecut=40 / intra_refresh=0 / rc_lookahead=40 / rc=2pass / mbtree=1 / bitrate=4208 / ratetol=1.0 / qcomp=0.60 / qpmin=0 / qpmax=69 / qpstep=4 / cplxblur=20.0 / qblur=0.5 / vbv_maxrate=50000 / vbv_bufsize=62500 / nal_hrd=none / filler=0 / ip_ratio=1.40 / aq=1:1.00
    Language : English
    Default : Yes
    Forced : No

    Audio #1
    ID : 2
    Format : AC-3
    Format/Info : Audio Coding 3
    Mode extension : CM (complete main)
    Format settings, Endianness : Big
    Codec ID : A_AC3
    Duration : 1 h 57 min
    Bit rate mode : Constant
    Bit rate : 384 kb/s
    Channel(s) : 6 channels
    Channel positions : Front: L C R, Side: L R, LFE
    Sampling rate : 48.0 kHz
    Frame rate : 31.250 FPS (1536 spf)
    Compression mode : Lossy
    Delay relative to video : 21 ms
    Stream size : 322 MiB (7%)
    Language : Russian
    Default : Yes
    Forced : No

    Audio #2
    ID : 3
    Format : AC-3
    Format/Info : Audio Coding 3
    Mode extension : CM (complete main)
    Format settings, Endianness : Big
    Codec ID : A_AC3
    Duration : 1 h 57 min
    Bit rate mode : Constant
    Bit rate : 640 kb/s
    Channel(s) : 6 channels
    Channel positions : Front: L C R, Side: L R, LFE
    Sampling rate : 48.0 kHz
    Frame rate : 31.250 FPS (1536 spf)
    Compression mode : Lossy
    Stream size : 536 MiB (12%)
    Language : English
    Default : No
    Forced : No

    Text #1
    ID : 4
    Format : UTF-8
    Codec ID : S_TEXT/UTF8
    Codec ID/Info : UTF-8 Plain Text
    Duration : 1 h 48 min
    Bit rate : 0 b/s
    Count of elements : 8
    Stream size : 363 Bytes (0%)
    Title : FORCED
    Language : Russian
    Default : Yes
    Forced : No

    Text #2
    ID : 5
    Format : UTF-8
    Codec ID : S_TEXT/UTF8
    Codec ID/Info : UTF-8 Plain Text
    Duration : 1 h 48 min
    Bit rate : 49 b/s
    Count of elements : 887
    Stream size : 39.1 KiB (0%)
    Title : full
    Language : Russian
    Default : No
    Forced : No

    Text #3
    ID : 6
    Format : UTF-8
    Codec ID : S_TEXT/UTF8
    Codec ID/Info : UTF-8 Plain Text
    Duration : 1 h 45 min
    Bit rate : 32 b/s
    Count of elements : 928
    Stream size : 24.8 KiB (0%)
    Title : full
    Language : English
    Default : No
    Forced : No

    Text #4
    ID : 7
    Format : UTF-8
    Codec ID : S_TEXT/UTF8
    Codec ID/Info : UTF-8 Plain Text
    Duration : 1 h 47 min
    Bit rate : 37 b/s
    Count of elements : 1205
    Stream size : 29.9 KiB (0%)
    Title : SDH
    Language : English
    Default : No
    Forced : No

    Menu
    00:00:00.000 : en:00:00:00.000
    00:03:33.463 : en:00:03:33.463
    00:08:02.732 : en:00:08:02.732
    00:14:05.178 : en:00:14:05.178
    00:19:45.851 : en:00:19:45.851
    00:24:50.030 : en:00:24:50.030
    00:28:29.541 : en:00:28:29.541
    00:33:33.094 : en:00:33:33.094
    00:36:51.418 : en:00:36:51.418
    00:41:04.295 : en:00:41:04.295
    00:45:48.245 : en:00:45:48.245
    00:51:52.401 : en:00:51:52.401
    00:57:36.662 : en:00:57:36.662
    01:03:46.239 : en:01:03:46.239
    01:13:41.917 : en:01:13:41.917
    01:21:54.701 : en:01:21:54.701
10.0 из 10
голосов: 4
/10
/10
schultz 6-12-2016, 21:01
Информация
Посетители, находящиеся в группе Гости, не могут оставлять комментарии к данной публикации.