Панель пользователя
Регистрация

Воспользуйтесь социальными сетями для входа на https://freerutor.com

vk odnoklassniki facebook mailru yandex google
Рекомендуем
Document
Счетчик
Голосуй за нас
Товары интернет магазина
Document

Большой и добрый великан (2016) BDRip-AVC | iTunes | R.G.Resident

Большой и добрый великан (2016) BDRip-AVC | iTunes | R.G.Resident
Участники торрент обмена
Сидов Пиров Скачали
1 0 796
Характеристика
Размер Файлы
3.03 GB
Релиз группа
Поделиться раздачей
Фильмы (AVC)
Наименование: Большой и добрый великан
Оригинальное наименование: The BFG
Категория: фэнтези, приключения, семейный
Произведено: Великобритания, Канада, США
Режиссер постановщик: Стивен Спилберг
В главных ролях: Марк Райлэнс, Руби Барнхилл, Пенелопа Уилтон, Джемейн Клемент, Ребекка Холл, Рейф Сполл, Билл Хейдер, Оулавюр Дарри Оулафссон, Адам Годли, Майкл Адамуэйт
Краткое описание: В центре истории девочка по имени Софи, которая не смогла заснуть до полуночи и в окошко увидела огромного великана, который подходил к соседним домам и начинал дуть в окна спален. В полном соответствии со старинными поверьями и детскими страшилками, великан увидел Софи и унес к себе домой, в страну великанов.
  • Видео данные: MPEG-4 AVC, 2874 Кбит/с, 1024x428
    Аудио данные: Русский (AC3, 6 ch, 384 Кбит/с), английский (АС3, 6 ch, 448 Кбит/с)
    Перевод: Дубляж - [iTunes]
    Продолжительность: 01:57:10
    Субтитры: русские (Forced), русские (full), английские (full), английские (SDH)
  • Большой и добрый великан (2016) BDRip-AVC | iTunes | R.G.Resident Большой и добрый великан (2016) BDRip-AVC | iTunes | R.G.Resident Большой и добрый великан (2016) BDRip-AVC | iTunes | R.G.Resident
  • Общее
    Уникальный идентификатор : 178948899485599219102217134976610479445 (0x86A04DED625C241BA8318A2480E62D55)
    Полное имя : D:downloadThe.BFG.2016.BDRip-AVC by schultz R.G.Resident.mkv
    Формат : Matroska
    Версия формата : Version 4 / Version 2
    Размер файла : 3,03 Гбайт
    Продолжительность : 1 ч. 57 м.
    Общий поток : 3702 Кбит/сек
    Дата кодирования : UTC 2016-12-06 16:52:22
    Программа кодирования : mkvmerge v8.9.0 ('Father Daughter') 64bit
    Библиотека кодирования : libebml v1.3.3 + libmatroska v1.4.4

    Видео
    Идентификатор : 1
    Формат : AVC
    Формат/Информация : Advanced Video Codec
    Профиль формата : High@L4.1
    Параметр CABAC формата : Да
    Параметр ReFrames формата : 12 кадров
    Идентификатор кодека : V_MPEG4/ISO/AVC
    Продолжительность : 1 ч. 57 м.
    Битрейт : 2874 Кбит/сек
    Ширина : 1024 пикселя
    Высота : 428 пикселей
    Соотношение сторон : 2,40:1
    Режим частоты кадров : Постоянный
    Частота кадров : 23,976 (23976/1000) кадра/сек
    Цветовое пространство : YUV
    Субдискретизация насыщенности : 4:2:0
    Битовая глубина : 8 бит
    Тип развёртки : Прогрессивная
    Бит/(Пиксели*Кадры) : 0.274
    Размер потока : 2,35 Гбайт (77%)
    Библиотека кодирования : x264 core 146 r2538 121396c
    Настройки программы : cabac=1 / ref=12 / deblock=1:-3:-3 / analyse=0x3:0x113 / me=umh / subme=11 / psy=1 / psy_rd=1.00:0.00 / mixed_ref=1 / me_range=48 / chroma_me=1 / trellis=2 / 8x8dct=1 / cqm=0 / deadzone=21,11 / fast_pskip=0 / chroma_qp_offset=-2 / threads=12 / lookahead_threads=3 / sliced_threads=0 / nr=0 / decimate=0 / interlaced=0 / bluray_compat=0 / constrained_intra=0 / bframes=11 / b_pyramid=2 / b_adapt=2 / b_bias=0 / direct=3 / weightb=1 / open_gop=0 / weightp=2 / keyint=240 / keyint_min=23 / scenecut=40 / intra_refresh=0 / rc_lookahead=40 / rc=2pass / mbtree=1 / bitrate=2874 / ratetol=1.0 / qcomp=0.60 / qpmin=0 / qpmax=69 / qpstep=4 / cplxblur=20.0 / qblur=0.5 / vbv_maxrate=50000 / vbv_bufsize=62500 / nal_hrd=none / filler=0 / ip_ratio=1.40 / aq=1:1.00
    Язык : English
    Default : Да
    Forced : Нет

    Аудио #1
    Идентификатор : 2
    Формат : AC-3
    Формат/Информация : Audio Coding 3
    Расширение режима : CM (complete main)
    Параметр Endianness формата : Big
    Идентификатор кодека : A_AC3
    Продолжительность : 1 ч. 57 м.
    Вид битрейта : Постоянный
    Битрейт : 384 Кбит/сек
    Каналы : 6 каналов
    Расположение каналов : Front: L C R, Side: L R, LFE
    Частота : 48,0 КГц
    Частота кадров : 31,250 кадров/сек (1536 spf)
    Метод сжатия : С потерями
    Задержка видео : 21 мс.
    Размер потока : 322 Мбайт (10%)
    Язык : Russian
    Default : Да
    Forced : Нет

    Аудио #2
    Идентификатор : 3
    Формат : AC-3
    Формат/Информация : Audio Coding 3
    Расширение режима : CM (complete main)
    Параметр Endianness формата : Big
    Идентификатор кодека : A_AC3
    Продолжительность : 1 ч. 57 м.
    Вид битрейта : Постоянный
    Битрейт : 448 Кбит/сек
    Каналы : 6 каналов
    Расположение каналов : Front: L C R, Side: L R, LFE
    Частота : 48,0 КГц
    Частота кадров : 31,250 кадров/сек (1536 spf)
    Метод сжатия : С потерями
    Размер потока : 375 Мбайт (12%)
    Язык : English
    Default : Нет
    Forced : Нет

    Текст #1
    Идентификатор : 4
    Формат : UTF-8
    Идентификатор кодека : S_TEXT/UTF8
    Идентификатор кодека/Информация : UTF-8 Plain Text
    Продолжительность : 1 ч. 48 м.
    Битрейт : 0 бит/сек
    Count of elements : 8
    Размер потока : 363 байт (0%)
    Заголовок : FORCED
    Язык : Russian
    Default : Да
    Forced : Нет

    Текст #2
    Идентификатор : 5
    Формат : UTF-8
    Идентификатор кодека : S_TEXT/UTF8
    Идентификатор кодека/Информация : UTF-8 Plain Text
    Продолжительность : 1 ч. 48 м.
    Битрейт : 49 бит/сек
    Count of elements : 887
    Размер потока : 39,1 Кбайт (0%)
    Заголовок : full
    Язык : Russian
    Default : Нет
    Forced : Нет

    Текст #3
    Идентификатор : 6
    Формат : UTF-8
    Идентификатор кодека : S_TEXT/UTF8
    Идентификатор кодека/Информация : UTF-8 Plain Text
    Продолжительность : 1 ч. 45 м.
    Битрейт : 32 бит/сек
    Count of elements : 928
    Размер потока : 24,8 Кбайт (0%)
    Заголовок : full
    Язык : English
    Default : Нет
    Forced : Нет

    Текст #4
    Идентификатор : 7
    Формат : UTF-8
    Идентификатор кодека : S_TEXT/UTF8
    Идентификатор кодека/Информация : UTF-8 Plain Text
    Продолжительность : 1 ч. 47 м.
    Битрейт : 37 бит/сек
    Count of elements : 1205
    Размер потока : 29,9 Кбайт (0%)
    Заголовок : SDH
    Язык : English
    Default : Нет
    Forced : Нет

    Меню
    00:00:00.000 : en:00:00:00.000
    00:03:33.463 : en:00:03:33.463
    00:08:02.732 : en:00:08:02.732
    00:14:05.178 : en:00:14:05.178
    00:19:45.851 : en:00:19:45.851
    00:24:50.030 : en:00:24:50.030
    00:28:29.541 : en:00:28:29.541
    00:33:33.094 : en:00:33:33.094
    00:36:51.418 : en:00:36:51.418
    00:41:04.295 : en:00:41:04.295
    00:45:48.245 : en:00:45:48.245
    00:51:52.401 : en:00:51:52.401
    00:57:36.662 : en:00:57:36.662
    01:03:46.239 : en:01:03:46.239
    01:13:41.917 : en:01:13:41.917
    01:21:54.701 : en:01:21:54.701
10.0 из 10
голосов: 2
schultz 6-12-2016, 20:54
Информация
Посетители, находящиеся в группе Гости, не могут оставлять комментарии к данной публикации.