Панель пользователя
Регистрация

Воспользуйтесь социальными сетями для входа на https://freerutor.com

vk odnoklassniki facebook mailru yandex google
Рекомендуем
загрузка...
Счетчик
Голосуй за нас
Популярное
Товары интернет магазина

Великолепная семерка (2016) BDRip 1080p | Лицензия

Великолепная семерка (2016) BDRip 1080p | Лицензия
Участники торрент обмена
Сидов Пиров Скачали
47 3 17207
Характеристика
Размер Файлы
9.66 GB
Релиз группа
Поделиться раздачей
Фильмы (720,1080,Blu-Ray)
Наименование: Великолепная семерка
Оригинальное наименование: The Magnificent Seven
Произведено: США
Категория: боевик, приключения, вестерн
Режиссер постановщик: Антуан Фукуа
В главных ролях: Дензел Вашингтон, Крис Пратт, Итан Хоук, Винсент Д Онофрио, Ли Бён-хон, Мануэль Рульфо, Мартин Сенсмейер, Хейли Беннетт, Питер Сарсгаард, Люк Граймс
Краткое описание: Семеро отважных искателей приключений встают на защиту жителей маленького городка, угнетаемого бандой грабителей.
  • Видео данные: MPEG-4 AVC, 9390 Kбит/с, 1920x804
    Аудио данные: Русский (AC3, 6 ch, 384 Кбит/с), английский (AC3, 6 ch, 640 Кбит/с)
    Перевод: Дублированный (лицензия)
    Субтитры: Русские (форсированные и полные), английские (полные)
    Продолжительность: 02:12:50
  • Великолепная семерка (2016) BDRip 1080p | Лицензия Великолепная семерка (2016) BDRip 1080p | Лицензия Великолепная семерка (2016) BDRip 1080p | Лицензия
  • x264 [info]: frame I:2024 Avg QP:17.03 size:215325
    x264 [info]: frame P:43307 Avg QP:19.97 size: 88689
    x264 [info]: frame B:145757 Avg QP:22.34 size: 34835

    Общее
    Уникальный идентификатор : 218490443364791567186409372935035191444 (0xA45FBA8EF54EE3C1A1E9F442BF768094)
    Полное имя : X:ATorrentThe.Magnificent.Seven.(2016).BDRip.1080p.(qqss44).mkv
    Формат : Matroska
    Версия формата : Version 2
    Размер файла : 9,66 Гбайт
    Продолжительность : 2 ч. 12 м.
    Общий поток : 10,4 Мбит/сек
    Название фильма : The.Magnificent.Seven.(2016).BDRip.1080p.(qqss44)
    Дата кодирования : UTC 2016-12-15 21:57:39
    Программа кодирования : mkvmerge v7.9.0 ('Birds') 64bit
    Библиотека кодирования : libebml v1.3.1 + libmatroska v1.4.2

    Видео
    Идентификатор : 1
    Формат : AVC
    Формат/Информация : Advanced Video Codec
    Профиль формата : High@L4.1
    Параметр CABAC формата : Да
    Параметр ReFrames формата : 5 кадров
    Идентификатор кодека : V_MPEG4/ISO/AVC
    Продолжительность : 2 ч. 12 м.
    Битрейт : 9390 Кбит/сек
    Ширина : 1920 пикселей
    Высота : 804 пикселя
    Соотношение сторон : 2,40:1
    Режим частоты кадров : Постоянный
    Частота кадров : 23,976 (24000/1001) кадра/сек
    Цветовое пространство : YUV
    Субдискретизация насыщенности : 4:2:0
    Битовая глубина : 8 бит
    Тип развёртки : Прогрессивная
    Бит/(Пиксели*Кадры) : 0.254
    Размер потока : 8,71 Гбайт (90%)
    Заголовок : The.Magnificent.Seven.(2016).BDRip.1080p.(qqss44)
    Библиотека кодирования : x264 core 148 r2744kMod b97ae06
    Настройки программы : cabac=1 / ref=5 / deblock=1:-3:-3 / analyse=0x3:0x133 / me=umh / subme=11 / psy=1 / fade_compensate=0.00 / psy_rd=1.00:0.00 / mixed_ref=1 / me_range=32 / chroma_me=1 / trellis=2 / 8x8dct=1 / cqm=0 / deadzone=21,11 / fast_pskip=0 / chroma_qp_offset=-2 / threads=12 / lookahead_threads=2 / sliced_threads=0 / nr=0 / decimate=0 / interlaced=0 / bluray_compat=0 / constrained_intra=0 / bframes=9 / b_pyramid=2 / b_adapt=2 / b_bias=0 / direct=3 / weightb=1 / open_gop=0 / weightp=2 / keyint=240 / keyint_min=23 / scenecut=40 / intra_refresh=0 / rc=2pass / mbtree=0 / bitrate=9390 / ratetol=1.0 / qcomp=0.65 / qpmin=0 / qpmax=69 / qpstep=4 / cplxblur=20.0 / qblur=0.5 / ip_ratio=1.40 / pb_ratio=1.30 / aq=3:0.80
    Язык : English
    Default : Да
    Forced : Нет

    Аудио #1
    Идентификатор : 2
    Формат : AC-3
    Формат/Информация : Audio Coding 3
    Расширение режима : CM (complete main)
    Параметр Endianness формата : Big
    Идентификатор кодека : A_AC3
    Продолжительность : 2 ч. 12 м.
    Вид битрейта : Постоянный
    Битрейт : 384 Кбит/сек
    Каналы : 6 каналов
    Расположение каналов : Front: L C R, Side: L R, LFE
    Частота : 48,0 КГц
    Частота кадров : 31,250 кадров/сек (1536 spf)
    Метод сжатия : С потерями
    Размер потока : 365 Мбайт (4%)
    Заголовок : DUB | DD5.1 @ 384 kbps
    Язык : Russian
    Default : Да
    Forced : Нет

    Аудио #2
    Идентификатор : 3
    Формат : AC-3
    Формат/Информация : Audio Coding 3
    Расширение режима : CM (complete main)
    Параметр Endianness формата : Big
    Идентификатор кодека : A_AC3
    Продолжительность : 2 ч. 12 м.
    Вид битрейта : Постоянный
    Битрейт : 640 Кбит/сек
    Каналы : 6 каналов
    Расположение каналов : Front: L C R, Side: L R, LFE
    Частота : 48,0 КГц
    Частота кадров : 31,250 кадров/сек (1536 spf)
    Метод сжатия : С потерями
    Размер потока : 608 Мбайт (6%)
    Заголовок : Original | DD5.1 @ 640 kbps
    Язык : English
    Default : Нет
    Forced : Нет

    Текст #1
    Идентификатор : 4
    Формат : UTF-8
    Идентификатор кодека : S_TEXT/UTF8
    Идентификатор кодека/Информация : UTF-8 Plain Text
    Продолжительность : 2 ч. 6 м.
    Битрейт : 0 бит/сек
    Count of elements : 18
    Размер потока : 535 байт (0%)
    Заголовок : FORCED
    Язык : Russian
    Default : Да
    Forced : Нет

    Текст #2
    Идентификатор : 5
    Формат : UTF-8
    Идентификатор кодека : S_TEXT/UTF8
    Идентификатор кодека/Информация : UTF-8 Plain Text
    Продолжительность : 2 ч. 7 м.
    Битрейт : 74 бит/сек
    Count of elements : 1494
    Размер потока : 68,9 Кбайт (0%)
    Заголовок : FULL
    Язык : Russian
    Default : Нет
    Forced : Нет

    Текст #3
    Идентификатор : 6
    Формат : UTF-8
    Идентификатор кодека : S_TEXT/UTF8
    Идентификатор кодека/Информация : UTF-8 Plain Text
    Продолжительность : 2 ч. 6 м.
    Битрейт : 48 бит/сек
    Count of elements : 1525
    Размер потока : 45,2 Кбайт (0%)
    Заголовок : FULL
    Язык : English
    Default : Нет
    Forced : Нет

    Меню
    00:00:00.000 : :Chapter 1
    00:04:53.710 : :Chapter 2
    00:11:28.187 : :Chapter 3
    00:18:12.591 : :Chapter 4
    00:25:17.850 : :Chapter 5
    00:31:55.956 : :Chapter 6
    00:36:53.795 : :Chapter 7
    00:42:05.857 : :Chapter 8
    00:50:23.520 : :Chapter 9
    00:59:57.844 : :Chapter 10
    01:06:49.631 : :Chapter 11
    01:16:08.439 : :Chapter 12
    01:23:25.792 : :Chapter 13
    01:34:06.766 : :Chapter 14
    01:44:19.712 : :Chapter 15
    01:54:47.297 : :Chapter 16
7.5 из 10
голосов: 11
/10
/10
foster720p 15-12-2016, 23:54

TRIAX2009 | 6-12-2016, 15:21 | Статус: Оффлайн

список файлов Pipec.Kakakya.SemErka smile
Информация
Посетители, находящиеся в группе Гости, не могут оставлять комментарии к данной публикации.