Торрент трекер FreeRutor

Отряд самоубийц (2016) BDRip 720р | Extended Cut | Дубляж, А. Матвеев | R.G.Resident

Отряд самоубийц (2016) BDRip 720р | Extended Cut | Дубляж, А. Матвеев | R.G.Resident
    Наименование: Отряд самоубийц
    Оригинальное наименование: Suicide Squad
    Категория: фантастика, фэнтези, боевик, приключения
    Произведено: США
    Режиссер постановщик: Дэвид Эйр
    В главных ролях: Марго Робби, Уилл Смит, Джаред Лето, Джай Кортни, Кара Делевинь, Джей Эрнандес, Юэль Киннаман, Виола Дэвис

7.0 /10
6 Голосов

Сидов Пиров Скачали Размер
0 0 1701 5,96 Gb
mkv Suicide Squad. 2016. Extended Cut. BDRip 720р by schultz R.G.Resident.mkv (5.96 GB)

Описание фильма

Правительство решает дать команде суперзлодеев шанс на искупление. Подвох в том, что их отправляют на миссию, где они, вероятнее всего, погибнут.

Видео данные: MPEG-4 AVC, 4419 Кбит/с, 1280x534
Аудио данные: Русский (AC3, 6 ch, 640 Кбит/с), английский (АС3, 6 ch, 640 Кбит/с)
Перевод: Дубляж, Авторский одноголосый | А. Матвеев
Продолжительность: 02:14:32
Субтитры: русские (Forced полные), русские (Full), английские (Full), английские (SDH)
Примечание: На расширеные места вставки А. Матвеев

x264 [info]: frame I:1644 Avg QP:12.87 size:110930
x264 [info]: frame P:43988 Avg QP:16.20 size: 40421
x264 [info]: frame B:147924 Avg QP:17.43 size: 16893

General
Unique ID : 243423341970420935999505607199097981662 (0xB721A15E611DEBA99FDB5B345FB98ADE)
Complete name : D:\download\Suicide Squad. 2016. Extended Cut. BDRip 720р by schultz R.G.Resident.mkv
Format : Matroska
Format version : Version 4 / Version 2
File size : 5.96 GiB
Duration : 2 h 14 min
Overall bit rate : 6 342 kb/s
Encoded date : UTC 2016-12-01 08:46:06
Writing application : mkvmerge v8.9.0 ('Father Daughter') 64bit
Writing library : libebml v1.3.3 + libmatroska v1.4.4

Video
ID : 1
Format : AVC
Format/Info : Advanced Video Codec
Format profile : High@L4.1
Format settings, CABAC : Yes
Format settings, ReFrames : 12 frames
Codec ID : V_MPEG4/ISO/AVC
Duration : 2 h 14 min
Bit rate : 4 419 kb/s
Width : 1 280 pixels
Height : 534 pixels
Display aspect ratio : 2.40:1
Frame rate mode : Constant
Frame rate : 23.976 (23976/1000) FPS
Color space : YUV
Chroma subsampling : 4:2:0
Bit depth : 8 bits
Scan type : Progressive
Bits/(Pixel*Frame) : 0.270
Stream size : 4.15 GiB (70%)
Writing library : x264 core 146 r2538 121396c
Encoding settings : cabac=1 / ref=12 / deblock=1:-3:-3 / analyse=0x3:0x113 / me=umh / subme=11 / psy=1 / psy_rd=1.00:0.00 / mixed_ref=1 / me_range=48 / chroma_me=1 / trellis=2 / 8x8dct=1 / cqm=0 / deadzone=21,11 / fast_pskip=0 / chroma_qp_offset=-2 / threads=12 / lookahead_threads=3 / sliced_threads=0 / nr=0 / decimate=0 / interlaced=0 / bluray_compat=0 / constrained_intra=0 / bframes=11 / b_pyramid=2 / b_adapt=2 / b_bias=0 / direct=3 / weightb=1 / open_gop=0 / weightp=2 / keyint=240 / keyint_min=23 / scenecut=40 / intra_refresh=0 / rc_lookahead=40 / rc=2pass / mbtree=1 / bitrate=4419 / ratetol=1.0 / qcomp=0.60 / qpmin=0 / qpmax=69 / qpstep=4 / cplxblur=20.0 / qblur=0.5 / vbv_maxrate=50000 / vbv_bufsize=62500 / nal_hrd=none / filler=0 / ip_ratio=1.40 / aq=1:1.00
Language : English
Default : Yes
Forced : No

Audio #1
ID : 2
Format : AC-3
Format/Info : Audio Coding 3
Mode extension : CM (complete main)
Format settings, Endianness : Big
Codec ID : A_AC3
Duration : 2 h 14 min
Bit rate mode : Constant
Bit rate : 640 kb/s
Channel(s) : 6 channels
Channel positions : Front: L C R, Side: L R, LFE
Sampling rate : 48.0 kHz
Frame rate : 31.250 FPS (1536 spf)
Compression mode : Lossy
Stream size : 616 MiB (10%)
Language : Russian
Default : Yes
Forced : No

Audio #2
ID : 3
Format : AC-3
Format/Info : Audio Coding 3
Mode extension : CM (complete main)
Format settings, Endianness : Big
Codec ID : A_AC3
Duration : 2 h 14 min
Bit rate mode : Constant
Bit rate : 640 kb/s
Channel(s) : 6 channels
Channel positions : Front: L C R, Side: L R, LFE
Sampling rate : 48.0 kHz
Frame rate : 31.250 FPS (1536 spf)
Compression mode : Lossy
Stream size : 616 MiB (10%)
Language : Russian
Default : No
Forced : No

Audio #3
ID : 4
Format : AC-3
Format/Info : Audio Coding 3
Mode extension : CM (complete main)
Format settings, Endianness : Big
Codec ID : A_AC3
Duration : 2 h 14 min
Bit rate mode : Constant
Bit rate : 640 kb/s
Channel(s) : 6 channels
Channel positions : Front: L C R, Side: L R, LFE
Sampling rate : 48.0 kHz
Frame rate : 31.250 FPS (1536 spf)
Compression mode : Lossy
Stream size : 616 MiB (10%)
Language : English
Default : No
Forced : No

Text #1
ID : 5
Format : UTF-8
Codec ID : S_TEXT/UTF8
Codec ID/Info : UTF-8 Plain Text
Duration : 2 h 13 min
Bit rate : 5 b/s
Count of elements : 110
Stream size : 5.01 KiB (0%)
Title : Forced
Language : Russian
Default : Yes
Forced : No

Text #2
ID : 6
Format : UTF-8
Codec ID : S_TEXT/UTF8
Codec ID/Info : UTF-8 Plain Text
Duration : 2 h 13 min
Bit rate : 72 b/s
Count of elements : 1570
Stream size : 71.4 KiB (0%)
Title : Full
Language : Russian
Default : No
Forced : No

Text #3
ID : 7
Format : UTF-8
Codec ID : S_TEXT/UTF8
Codec ID/Info : UTF-8 Plain Text
Duration : 2 h 7 min
Bit rate : 47 b/s
Count of elements : 1619
Stream size : 44.6 KiB (0%)
Title : Full
Language : English
Default : No
Forced : No

Text #4
ID : 8
Format : UTF-8
Codec ID : S_TEXT/UTF8
Codec ID/Info : UTF-8 Plain Text
Duration : 2 h 6 min
Bit rate : 59 b/s
Count of elements : 1821
Stream size : 55.4 KiB (0%)
Title : SDH
Language : English
Default : No
Forced : No

Menu
00:00:00.000 : en:00:00:00.000
00:09:08.506 : en:00:09:08.506
00:20:22.972 : en:00:20:22.972
00:31:14.706 : en:00:31:14.706
00:41:04.879 : en:00:41:04.879
00:52:21.805 : en:00:52:21.805
01:04:48.843 : en:01:04:48.843
01:21:12.743 : en:01:21:12.743
01:32:11.943 : en:01:32:11.943
01:42:57.671 : en:01:42:57.671
01:50:58.652 : en:01:50:58.652
02:04:04.812 : en:02:04:04.812

  • schultz
  • Ошибка?
    Ошибку могут отправлять только зарегистрированные пользователи

Отзывы о фильме

Авторизуйтесь или зарегистрируйтесь,
чтобы оставлять комментарии

Информация
Посетители, находящиеся в группе Гости, не могут оставлять комментарии к данной публикации.