Панель пользователя
Регистрация

Воспользуйтесь социальными сетями для входа на https://freerutor.com

vk odnoklassniki facebook mailru yandex google
Рекомендуем
Document
Счетчик
Голосуй за нас
Популярное
загрузка...
Товары интернет магазина
загрузка...

Найди меня, если сможешь (2016) BDRip 720p | iTunes

Найди меня, если сможешь (2016) BDRip 720p | iTunes
Участники торрент обмена
Сидов Пиров Скачали
15 0 2363
Характеристика
Размер Файлы
6.83 GB
Поделиться раздачей
Фильмы (720,1080,Blu-Ray)
Наименование: Найди меня, если сможешь / Приди и найди меня
Оригинальное наименование: Come and Find Me
Произведено: Великобритания
Категория: триллер, драма
Режиссер постановщик: Зак Уэдон
В главных ролях: Аарон Пол, Аннабелль Уоллис, Гаррет Диллахант, Валери Тиан, Захари Найтон, Терри Чен, Джордана Ларги, Дин Редман, Майкл Копса, Джессика Хифи
Краткое описание: Идеальным отношениям Давида и Клэр приходит внезапный и таинственный конец после того, как Клэр бесследно исчезает. Опустошённый, но не теряющий надежды, Дэвид идёт по её следам, несмотря на нарастающее безумие и опасность. Выяснив, что Клэр ведёт двойную жизнь, он вынужден рисковать всем, чтобы снова её увидеть.
  • Видео данные: MPEG-4 AVC, 6840 Кбит/с, 1280x536
    Аудио данные: Русский (AC3, 6 ch, 384 Кбит/с), английский (DTS, 6 ch, 1510 Кбит/с)
    Перевод: Профессиональный многоголосый [iTunes]
    Субтитры: Английские
    Продолжительность: 01:52:11
    Рели без рекламы
  • Найди меня, если сможешь (2016) BDRip 720p | iTunes Найди меня, если сможешь (2016) BDRip 720p | iTunes Найди меня, если сможешь (2016) BDRip 720p | iTunes
  • Общее
    Уникальный идентификатор : 242963170116309230525229200810278740281 (0xB6C90125035A23358DCA5ED96FB96139)
    Полное имя : D:\загрузки\Come.and.Find.Me.2O16.P.BDRip.720p.mkv
    Формат : Matroska
    Версия формата : Version 2
    Размер файла : 6,83 Гбайт
    Продолжительность : 1 ч. 52 м.
    Общий поток : 8718 Кбит/сек
    Дата кодирования : UTC 2017-03-13 21:04:59
    Программа кодирования : mkvmerge v7.8.0 ('River Man') 32bit built on Apr 3 2015 12:11:22
    Библиотека кодирования : libebml v1.3.1 + libmatroska v1.4.2

    Видео
    Идентификатор : 1
    Формат : AVC
    Формат/Информация : Advanced Video Codec
    Профиль формата : High@L4.1
    Параметр CABAC формата : Да
    Параметр ReFrames формата : 12 кадров
    Идентификатор кодека : V_MPEG4/ISO/AVC
    Продолжительность : 1 ч. 52 м.
    Битрейт : 6840 Кбит/сек
    Ширина : 1280 пикселей
    Высота : 536 пикселей
    Соотношение сторон : 2,40:1
    Режим частоты кадров : Постоянный
    Частота кадров : 23,976 (24000/1001) кадра/сек
    Цветовое пространство : YUV
    Субдискретизация насыщенности : 4:2:0
    Битовая глубина : 8 бит
    Тип развёртки : Прогрессивная
    Бит/(Пиксели*Кадры) : 0.416
    Размер потока : 5,21 Гбайт (76%)
    Библиотека кодирования : x264 core 142 r2431+42 c69a006 tMod [8-bit@all X86_64]
    Настройки программы : cabac=1 / ref=12 / deblock=1:-3:-3 / analyse=0x3:0x133 / me=umh / subme=11 / psy=1 / fade_compensate=0.00 / psy_rd=1.05:1.05 / mixed_ref=1 / me_range=48 / chroma_me=1 / trellis=2 / 8x8dct=1 / cqm=0 / deadzone=21,11 / fast_pskip=1 / chroma_qp_offset=-4 / threads=16 / lookahead_threads=2 / sliced_threads=0 / nr=0 / decimate=0 / interlaced=0 / bluray_compat=0 / constrained_intra=0 / fgo=0 / bframes=9 / b_pyramid=2 / b_adapt=2 / b_bias=0 / direct=3 / weightb=1 / open_gop=0 / weightp=2 / keyint=240 / keyint_min=23 / scenecut=40 / intra_refresh=0 / rc_lookahead=150 / rc=2pass / mbtree=0 / bitrate=6840 / ratetol=1.0 / qcomp=0.60 / qpmin=0:0:0 / qpmax=69:69:69 / qpstep=4 / cplxblur=20.0 / qblur=0.5 / vbv_maxrate=62500 / vbv_bufsize=78125 / nal_hrd=none / filler=0 / ip_ratio=1.20 / pb_ratio=1.30 / aq=2:0.80 / aq-sensitivity=10.00 / aq-factor=1.00:1.00:1.00 / aq2=0 / aq3=0
    Язык : English
    Default : Да
    Forced : Нет
    Цветовой диапазон : Limited
    Основные цвета : BT.709
    Характеристики трансфера : BT.709
    Коэффициенты матрицы : BT.709

    Аудио #1
    Идентификатор : 2
    Формат : AC-3
    Формат/Информация : Audio Coding 3
    Расширение режима : CM (complete main)
    Параметр Endianness формата : Big
    Идентификатор кодека : A_AC3
    Продолжительность : 1 ч. 52 м.
    Вид битрейта : Постоянный
    Битрейт : 384 Кбит/сек
    Каналы : 6 каналов
    Расположение каналов : Front: L C R, Side: L R, LFE
    Частота : 48,0 КГц
    Частота кадров : 31,250 кадров/сек (1536 spf)
    Битовая глубина : 16 бит
    Метод сжатия : С потерями
    Размер потока : 308 Мбайт (4%)
    Язык : Russian
    Default : Да
    Forced : Нет

    Аудио #2
    Идентификатор : 3
    Формат : DTS
    Формат/Информация : Digital Theater Systems
    Режим : 16
    Параметр Endianness формата : Big
    Идентификатор кодека : A_DTS
    Продолжительность : 1 ч. 52 м.
    Вид битрейта : Постоянный
    Битрейт : 1509 Кбит/сек
    Каналы : 6 каналов
    Расположение каналов : Front: L C R, Side: L R, LFE
    Частота : 48,0 КГц
    Частота кадров : 93,750 кадра/сек (512 spf)
    Битовая глубина : 24 бит
    Метод сжатия : С потерями
    Размер потока : 1,18 Гбайт (17%)
    Язык : English
    Default : Нет
    Forced : Нет

    Текст
    Идентификатор : 4
    Формат : UTF-8
    Идентификатор кодека : S_TEXT/UTF8
    Идентификатор кодека/Информация : UTF-8 Plain Text
    Язык : English
    Default : Нет
    Forced : Нет

    Меню
    00:00:00.000 : en:Chapter 01
    00:07:24.527 : en:Chapter 02
    00:14:30.786 : en:Chapter 03
    00:22:22.341 : en:Chapter 04
    00:29:29.267 : en:Chapter 05
    00:38:30.433 : en:Chapter 06
    00:44:36.090 : en:Chapter 07
    00:50:50.714 : en:Chapter 08
    00:57:14.180 : en:Chapter 09
    01:07:29.920 : en:Chapter 10
    01:15:23.560 : en:Chapter 11
    01:19:43.987 : en:Chapter 12
    01:27:45.426 : en:Chapter 13
    01:32:12.026 : en:Chapter 14
    01:41:35.464 : en:Chapter 15
    01:47:23.437 : en:Chapter 16
4.7 из 10
голосов: 3
/10
/10
foster720p 14-03-2017, 00:10

karta | 14-03-2017, 00:10 | Статус: Оффлайн

Информация
Посетители, находящиеся в группе Гости, не могут оставлять комментарии к данной публикации.