Панель пользователя
Регистрация

Воспользуйтесь социальными сетями для входа на https://freerutor.com

vk odnoklassniki facebook mailru yandex google
Рекомендуем
Document
Счетчик
Голосуй за нас
Популярное
загрузка...
Товары интернет магазина

Просто потрясающе (2016) BDRip 720p | iTunes

Просто потрясающе (2016) BDRip 720p | iTunes
Участники торрент обмена
Сидов Пиров Скачали
2 0 253
Характеристика
Размер Файлы
4.94 GB
Поделиться раздачей
Фильмы (720,1080,Blu-Ray)
Наименование: Просто потрясающе
Оригинальное наименование: Absolutely Fabulous: The Movie
Категория: Комедия, криминал
Произведено: Великобритания, США, British Film Company, Fox Searchlight Pictures
Режиссер постановщик: Мэнди Флетчер
В главных ролях: Лулу, Гвендолин Кристи, Дженнифер Сондерс, Джоанна Ламли, Джулия Савала, Джейн Хоррокс, Джун Уитфилд, Мо Гаффни, Кристофер Райан
Краткое описание: Эдина и Пэтси все еще источают гламур и блеск живя той красивой жизнью, к которой они так привыкли. Шоппинг, выпивохинг и клаббинг по всему Лондону, и в самых модных его частях. Обвиненные в инциденте на одном из модных показов, они оказываются в центре медийного шторма. Во избежания преследования папарацци они сбегают (попутно забыв деньги) на очень дорогую Французскую Ривьеру, с целью остаться здесь навсегда.
  • Видео данные: MPEG-4 AVC, 6750 Кбит/с, 1280x536
    Аудио данные: Русский (AC3, 2 ch, 384 Кбит/с), английский (AC3, 6 ch, 640 Кбит/с)
    Перевод: Профессиональный многоголосый [iTunes]
    Субтитры: Русские (форсированные), английские
    Продолжительность: 01:30:55
    Просто потрясающе (2016) BDRip 720p | iTunes
  • Просто потрясающе (2016) BDRip 720p | iTunes Просто потрясающе (2016) BDRip 720p | iTunes Просто потрясающе (2016) BDRip 720p | iTunes
  • Общее
    Уникальный идентификатор : 201699095736780382557568769835804490136 (0x97BDD533EC3DC50A92045439A9697998)
    Полное имя : D:\загрузки\Absolutely.Fabulous.The.Movie.2016.P.BDRip.720p.mkv
    Формат : Matroska
    Версия формата : Version 2
    Размер файла : 4,94 Гбайт
    Продолжительность : 1 ч. 30 м.
    Общий поток : 7776 Кбит/сек
    Дата кодирования : UTC 2017-02-06 00:15:04
    Программа кодирования : mkvmerge v7.8.0 ('River Man') 32bit built on Apr 3 2015 12:11:22
    Библиотека кодирования : libebml v1.3.1 + libmatroska v1.4.2

    Видео
    Идентификатор : 1
    Формат : AVC
    Формат/Информация : Advanced Video Codec
    Профиль формата : High@L5.1
    Параметр CABAC формата : Да
    Параметр ReFrames формата : 12 кадров
    Идентификатор кодека : V_MPEG4/ISO/AVC
    Продолжительность : 1 ч. 30 м.
    Битрейт : 6750 Кбит/сек
    Ширина : 1280 пикселей
    Высота : 536 пикселей
    Соотношение сторон : 2,40:1
    Режим частоты кадров : Постоянный
    Частота кадров : 23,976 (24000/1001) кадра/сек
    Цветовое пространство : YUV
    Субдискретизация насыщенности : 4:2:0
    Битовая глубина : 8 бит
    Тип развёртки : Прогрессивная
    Бит/(Пиксели*Кадры) : 0.410
    Размер потока : 4,19 Гбайт (85%)
    Библиотека кодирования : x264 core 142 r2431+42 c69a006 tMod [8-bit@all X86_64]
    Настройки программы : cabac=1 / ref=12 / deblock=1:-3:-3 / analyse=0x3:0x113 / me=umh / subme=11 / psy=1 / fade_compensate=0.00 / psy_rd=1.05:1.05 / mixed_ref=1 / me_range=48 / chroma_me=1 / trellis=2 / 8x8dct=1 / cqm=0 / deadzone=21,11 / fast_pskip=0 / chroma_qp_offset=-4 / threads=16 / lookahead_threads=2 / sliced_threads=0 / nr=0 / decimate=0 / interlaced=0 / bluray_compat=0 / constrained_intra=0 / fgo=0 / bframes=8 / b_pyramid=2 / b_adapt=2 / b_bias=0 / direct=3 / weightb=1 / open_gop=0 / weightp=2 / keyint=240 / keyint_min=23 / scenecut=40 / intra_refresh=0 / rc_lookahead=100 / rc=2pass / mbtree=0 / bitrate=6750 / ratetol=1.0 / qcomp=0.70 / qpmin=0:0:0 / qpmax=69:69:69 / qpstep=4 / cplxblur=20.0 / qblur=0.5 / vbv_maxrate=300000 / vbv_bufsize=300000 / nal_hrd=none / filler=0 / ip_ratio=1.30 / pb_ratio=1.20 / aq=2:0.80 / aq-sensitivity=10.00 / aq-factor=1.00:1.00:1.00 / aq2=0 / aq3=0
    Язык : English
    Default : Да
    Forced : Нет
    Цветовой диапазон : Limited
    Основные цвета : BT.709
    Характеристики трансфера : BT.709
    Коэффициенты матрицы : BT.709

    Аудио #1
    Идентификатор : 2
    Формат : AC-3
    Формат/Информация : Audio Coding 3
    Расширение режима : CM (complete main)
    Параметр Endianness формата : Big
    Идентификатор кодека : A_AC3
    Продолжительность : 1 ч. 30 м.
    Вид битрейта : Постоянный
    Битрейт : 384 Кбит/сек
    Каналы : 2 канала
    Расположение каналов : Front: L R
    Частота : 48,0 КГц
    Частота кадров : 31,250 кадров/сек (1536 spf)
    Битовая глубина : 16 бит
    Метод сжатия : С потерями
    Размер потока : 250 Мбайт (5%)
    Заголовок : iTunes
    Язык : Russian
    Default : Да
    Forced : Нет

    Аудио #2
    Идентификатор : 3
    Формат : AC-3
    Формат/Информация : Audio Coding 3
    Расширение режима : CM (complete main)
    Параметр Endianness формата : Big
    Идентификатор кодека : A_AC3
    Продолжительность : 1 ч. 30 м.
    Вид битрейта : Постоянный
    Битрейт : 640 Кбит/сек
    Каналы : 6 каналов
    Расположение каналов : Front: L C R, Side: L R, LFE
    Частота : 48,0 КГц
    Частота кадров : 31,250 кадров/сек (1536 spf)
    Битовая глубина : 16 бит
    Метод сжатия : С потерями
    Размер потока : 416 Мбайт (8%)
    Язык : English
    Default : Нет
    Forced : Нет

    Текст #1
    Идентификатор : 4
    Формат : UTF-8
    Идентификатор кодека : S_TEXT/UTF8
    Идентификатор кодека/Информация : UTF-8 Plain Text
    Заголовок : forced
    Язык : Russian
    Default : Да
    Forced : Нет

    Текст #2
    Идентификатор : 5
    Формат : UTF-8
    Идентификатор кодека : S_TEXT/UTF8
    Идентификатор кодека/Информация : UTF-8 Plain Text
    Язык : English
    Default : Нет
    Forced : Нет

    Меню
    00:00:00.000 : en:00:00:00.000
    00:02:49.544 : en:00:02:49.544
    00:06:38.565 : en:00:06:38.565
    00:11:13.882 : en:00:11:13.882
    00:14:07.055 : en:00:14:07.055
    00:17:13.157 : en:00:17:13.157
    00:21:21.489 : en:00:21:21.489
    00:24:43.857 : en:00:24:43.857
    00:29:31.895 : en:00:29:31.895
    00:33:44.814 : en:00:33:44.814
    00:36:27.685 : en:00:36:27.685
    00:41:54.137 : en:00:41:54.137
    00:45:33.189 : en:00:45:33.189
    00:49:46.358 : en:00:49:46.358
    00:53:40.509 : en:00:53:40.509
    00:56:38.186 : en:00:56:38.186
    01:02:11.061 : en:01:02:11.061
    01:05:28.883 : en:01:05:28.883
    01:09:12.273 : en:01:09:12.273
    01:12:09.951 : en:01:12:09.951
    01:14:16.410 : en:01:14:16.410
    01:17:19.176 : en:01:17:19.176
    01:20:00.629 : en:01:20:00.629
    01:22:45.669 : en:01:22:45.669
10.0 из 10
голосов: 2
/10
/10
bond74 6-02-2017, 03:18
Информация
Посетители, находящиеся в группе Гости, не могут оставлять комментарии к данной публикации.