Панель пользователя
Регистрация

Воспользуйтесь социальными сетями для входа на https://freerutor.com

vk odnoklassniki facebook mailru yandex google
Рекомендуем
загрузка...
Счетчик
Голосуй за нас
Популярное
Товары интернет магазина

Кубо. Легенда о самурае (2016) BDRip 720p | iTunes

Кубо. Легенда о самурае (2016) BDRip 720p | iTunes
Участники торрент обмена
Сидов Пиров Скачали
58 4 3690
Характеристика
Размер Файлы
4.98 GB
Поделиться раздачей
Мультфильмы
Наименование: Кубо. Легенда о самурае
Оригинальное наименование: Kubo and the Two Strings
Произведено: США
Категория: мультфильм, фэнтези, приключения, семейный
Режиссер постановщик: Трэвис Найт
В главных ролях: Арт Паркинсон, Шарлиз Терон, Рэйф Файнс, Джордж Такей, Кэри-Хироюки Тагава, Бренда Ваккаро, Руни Мара, Мэттью МакКонахи, Мейрик Мерфи, Мина Нодзи
Краткое описание: Кубо - наследник великого рода, но когда возвратились духи прошлого, жаждущие мести, на его защиту отважилась встать лишь странная парочка хранителей. И теперь для Кубо единственный шанс на спасение - найти магические доспехи отца, легендарного самурая.
  • Видео данные: MPEG-4 AVC, 4980 Кбит/с, 1280x536
    Аудио данные: Russian: AC3, 384 kb/s (6 ch) / English: DTS, 1509 kb/s (6 ch)
    Перевод: Дублированный [iTunes]
    Субтитры: Русские, английские
    Продолжительность: 01:41:36
  • Кубо. Легенда о самурае (2016) BDRip 720p | iTunes Кубо. Легенда о самурае (2016) BDRip 720p | iTunes Кубо. Легенда о самурае (2016) BDRip 720p | iTunes
  • Общее
    Уникальный идентификатор : 253146804606567603944077665790098582276 (0xBE724D16F8CE32D79D96B8DE50A6AB04)
    Полное имя : D:\загрузки\Kubo.And.The.Two.Strings.2016.D.BDRip.720p.mkv
    Формат : Matroska
    Версия формата : Version 2
    Размер файла : 4,98 Гбайт
    Продолжительность : 1 ч. 41 м.
    Общий поток : 7013 Кбит/сек
    Дата кодирования : UTC 2016-12-14 22:29:05
    Программа кодирования : mkvmerge v7.8.0 ('River Man') 32bit built on Apr 3 2015 12:11:22
    Библиотека кодирования : libebml v1.3.1 + libmatroska v1.4.2

    Видео
    Идентификатор : 1
    Формат : AVC
    Формат/Информация : Advanced Video Codec
    Профиль формата : High@L4.1
    Параметр CABAC формата : Да
    Параметр ReFrames формата : 12 кадров
    Идентификатор кодека : V_MPEG4/ISO/AVC
    Продолжительность : 1 ч. 41 м.
    Битрейт : 4980 Кбит/сек
    Ширина : 1280 пикселей
    Высота : 536 пикселей
    Соотношение сторон : 2,40:1
    Режим частоты кадров : Постоянный
    Частота кадров : 23,976 кадра/сек
    Цветовое пространство : YUV
    Субдискретизация насыщенности : 4:2:0
    Битовая глубина : 8 бит
    Тип развёртки : Прогрессивная
    Бит/(Пиксели*Кадры) : 0.303
    Размер потока : 3,53 Гбайт (71%)
    Библиотека кодирования : x264 core 148 r2721kMod 72d53ab
    Настройки программы : cabac=1 / ref=12 / deblock=1:-3:-3 / analyse=0x3:0x133 / me=umh / subme=10 / psy=1 / fade_compensate=0.00 / psy_rd=1.00:0.00 / mixed_ref=1 / me_range=24 / chroma_me=1 / trellis=2 / 8x8dct=1 / cqm=0 / deadzone=21,11 / fast_pskip=0 / chroma_qp_offset=-2 / threads=12 / lookahead_threads=2 / sliced_threads=0 / nr=0 / decimate=0 / interlaced=0 / bluray_compat=0 / constrained_intra=0 / fgo=0 / bframes=8 / b_pyramid=2 / b_adapt=2 / b_bias=0 / direct=3 / weightb=1 / open_gop=0 / weightp=2 / keyint=250 / keyint_min=23 / scenecut=40 / intra_refresh=0 / rc_lookahead=60 / rc=crf / mbtree=0 / crf=16.0000 / qcomp=0.60 / qpmin=0 / qpmax=69 / qpstep=4 / vbv_maxrate=62500 / vbv_bufsize=78125 / crf_max=0.0 / nal_hrd=none / filler=0 / ip_ratio=1.30 / pb_ratio=1.20 / aq=3:0.75
    Язык : English
    Default : Да
    Forced : Нет
    Коэффициенты матрицы : BT.709

    Аудио #1
    Идентификатор : 2
    Формат : AC-3
    Формат/Информация : Audio Coding 3
    Расширение режима : CM (complete main)
    Параметр Endianness формата : Big
    Идентификатор кодека : A_AC3
    Продолжительность : 1 ч. 41 м.
    Вид битрейта : Постоянный
    Битрейт : 384 Кбит/сек
    Каналы : 6 каналов
    Расположение каналов : Front: L C R, Side: L R, LFE
    Частота : 48,0 КГц
    Битовая глубина : 16 бит
    Метод сжатия : С потерями
    Размер потока : 279 Мбайт (5%)
    Заголовок : iTunes
    Язык : Russian
    Default : Да
    Forced : Нет

    Аудио #2
    Идентификатор : 3
    Формат : DTS
    Формат/Информация : Digital Theater Systems
    Режим : 16
    Параметр Endianness формата : Big
    Идентификатор кодека : A_DTS
    Продолжительность : 1 ч. 41 м.
    Вид битрейта : Постоянный
    Битрейт : 1509 Кбит/сек
    Каналы : 6 каналов
    Расположение каналов : Front: L C R, Side: L R, LFE
    Частота : 48,0 КГц
    Битовая глубина : 24 бит
    Метод сжатия : С потерями
    Размер потока : 1,07 Гбайт (22%)
    Язык : English
    Default : Нет
    Forced : Нет

    Текст #1
    Идентификатор : 4
    Формат : UTF-8
    Идентификатор кодека : S_TEXT/UTF8
    Идентификатор кодека/Информация : UTF-8 Plain Text
    Заголовок : Full
    Язык : Russian
    Default : Нет
    Forced : Нет

    Текст #2
    Идентификатор : 5
    Формат : UTF-8
    Идентификатор кодека : S_TEXT/UTF8
    Идентификатор кодека/Информация : UTF-8 Plain Text
    Заголовок : Full
    Язык : English
    Default : Нет
    Forced : Нет

    Текст #3
    Идентификатор : 6
    Формат : UTF-8
    Идентификатор кодека : S_TEXT/UTF8
    Идентификатор кодека/Информация : UTF-8 Plain Text
    Заголовок : SDH
    Язык : English
    Default : Нет
    Forced : Нет

    Меню
    00:00:00.000 : en:00:00:00.000
    00:02:56.510 : en:00:02:56.510
    00:07:10.639 : en:00:07:10.639
    00:12:08.895 : en:00:12:08.895
    00:17:19.956 : en:00:17:19.956
    00:21:40.799 : en:00:21:40.799
    00:25:58.390 : en:00:25:58.390
    00:32:11.555 : en:00:32:11.555
    00:36:58.049 : en:00:36:58.049
    00:42:33.509 : en:00:42:33.509
    00:47:48.657 : en:00:47:48.657
    00:50:47.670 : en:00:50:47.670
    00:56:48.947 : en:00:56:48.947
    01:02:56.314 : en:01:02:56.314
    01:08:28.271 : en:01:08:28.271
    01:12:40.606 : en:01:12:40.606
    01:20:00.629 : en:01:20:00.629
    01:24:22.266 : en:01:24:22.266
    01:28:46.071 : en:01:28:46.071
    01:32:49.564 : en:01:32:49.564
8.0 из 10
голосов: 5
/10
/10
foster720p 15-12-2016, 01:42
Информация
Посетители, находящиеся в группе Гости, не могут оставлять комментарии к данной публикации.