Панель пользователя
Регистрация

Воспользуйтесь социальными сетями для входа на https://freerutor.com

vk odnoklassniki facebook mailru yandex google
Рекомендуем
Document
Счетчик
Голосуй за нас
Товары интернет магазина
Document

Кубо. Легенда о самурае (2016) BDRip 720p | Лицензия

Кубо. Легенда о самурае (2016) BDRip 720p | Лицензия
Участники торрент обмена
Сидов Пиров Скачали
1 0 165
Характеристика
Размер Файлы
4.03 GB
Релиз группа
Поделиться раздачей
Мультфильмы
Наименование: Кубо. Легенда о самурае
Оригинальное наименование: Kubo and the Two Strings
Произведено: США
Категория: мультфильм, фэнтези, приключения, семейный
Режиссер постановщик: Трэвис Найт
В главных ролях: Арт Паркинсон, Шарлиз Терон, Рэйф Файнс, Джордж Такей, Кэри-Хироюки Тагава, Бренда Ваккаро, Руни Мара, Мэттью МакКонахи, Мейрик Мерфи, Мина Нодзи
Краткое описание: Кубо - наследник великого рода, но когда возвратились духи прошлого, жаждущие мести, на его защиту отважилась встать лишь странная парочка хранителей. И теперь для Кубо единственный шанс на спасение - найти магические доспехи отца, легендарного самурая.
  • Видео данные: MPEG-4 AVC, 3820 Кбит/с, 1280x536
    Аудио данные: Русский (AC3, 6 ch, 448 Кбит/с), (DTS, 6 ch, 768 Кбит/с), английский (AC3, 6 ch, 640 Кбит/с)
    Перевод: Дублированный [Лицензия]
    Субтитры: Русские, английские
    Продолжительность: 01:41:36
  • Кубо. Легенда о самурае (2016) BDRip 720p | Лицензия Кубо. Легенда о самурае (2016) BDRip 720p | Лицензия Кубо. Легенда о самурае (2016) BDRip 720p | Лицензия
  • General
    Unique ID : 249595433799465257808104578926335067889 (0xBBC654FD898856F29648D665567186F1)
    Complete name : D:Kubo.and.the.Two.Strіngs.2016.D.BDRip.720p.ExKinoRay.mkv
    Format : Matroska
    Format version : Version 2
    File size : 4.03 GiB
    Duration : 1 h 41 min
    Overall bit rate : 5 678 kb/s
    Movie name : Kubo and the Two Strіngs 2016 from ExKinoRay
    Encoded date : UTC 2017-05-03 01:46:33
    Writing application : mkvmerge v5.8.0 ('No Sleep / Pillow') built on Sep 2 2012 15:37:04
    Writing library : libebml v1.2.3 + libmatroska v1.3.0

    Video
    ID : 1
    Format : AVC
    Format/Info : Advanced Video Codec
    Format profile : High@L4.1
    Format settings, CABAC : Yes
    Format settings, ReFrames : 12 frames
    Codec ID : V_MPEG4/ISO/AVC
    Duration : 1 h 41 min
    Bit rate : 3 820 kb/s
    Width : 1 280 pixels
    Height : 536 pixels
    Display aspect ratio : 2.40:1
    Frame rate mode : Constant
    Frame rate : 23.976 (23976/1000) FPS
    Color space : YUV
    Chroma subsampling : 4:2:0
    Bit depth : 8 bits
    Scan type : Progressive
    Bits/(Pixel*Frame) : 0.232
    Stream size : 2.63 GiB (65%)
    Title : Enigma
    Writing library : x264 core 144 r2525 40bb568
    Encoding settings : cabac=1 / ref=12 / deblock=1:-2:-2 / analyse=0x3:0x113 / me=umh / subme=10 / psy=1 / psy_rd=1.00:0.05 / mixed_ref=1 / me_range=32 / chroma_me=1 / trellis=2 / 8x8dct=1 / cqm=0 / deadzone=21,11 / fast_pskip=1 / chroma_qp_offset=-3 / threads=12 / lookahead_threads=3 / sliced_threads=0 / nr=0 / decimate=1 / interlaced=0 / bluray_compat=0 / constrained_intra=0 / bframes=12 / b_pyramid=2 / b_adapt=2 / b_bias=0 / direct=3 / weightb=1 / open_gop=0 / weightp=2 / keyint=240 / keyint_min=23 / scenecut=40 / intra_refresh=0 / rc_lookahead=40 / rc=2pass / mbtree=0 / bitrate=3820 / ratetol=1.0 / qcomp=0.60 / qpmin=0 / qpmax=51 / qpstep=4 / cplxblur=20.0 / qblur=0.5 / vbv_maxrate=50000 / vbv_bufsize=62500 / nal_hrd=none / filler=0 / ip_ratio=1.40 / pb_ratio=1.30 / aq=3:0.80
    Language : English
    Default : Yes
    Forced : No
    Color range : Limited
    Color primaries : BT.709
    Transfer characteristics : BT.709
    Matrix coefficients : BT.709

    Audio #1
    ID : 2
    Format : AC-3
    Format/Info : Audio Coding 3
    Mode extension : CM (complete main)
    Format settings, Endianness : Big
    Codec ID : A_AC3
    Duration : 1 h 41 min
    Bit rate mode : Constant
    Bit rate : 448 kb/s
    Channel(s) : 6 channels
    Channel positions : Front: L C R, Side: L R, LFE
    Sampling rate : 48.0 kHz
    Frame rate : 31.250 FPS (1536 spf)
    Compression mode : Lossy
    Stream size : 326 MiB (8%)
    Title : Dub (Лицензия)
    Language : Russian
    Default : Yes
    Forced : No

    Audio #2
    ID : 3
    Format : DTS
    Format/Info : Digital Theater Systems
    Mode : 16
    Format settings, Endianness : Big
    Codec ID : A_DTS
    Duration : 1 h 41 min
    Bit rate mode : Constant
    Bit rate : 768 kb/s
    Channel(s) : 6 channels
    Channel positions : Front: L C R, Side: L R, LFE
    Sampling rate : 48.0 kHz
    Frame rate : 93.750 FPS (512 spf)
    Bit depth : 24 bits
    Compression mode : Lossy
    Stream size : 558 MiB (14%)
    Title : Dub DTS (Лицензия)
    Language : Russian
    Default : No
    Forced : No

    Audio #3
    ID : 4
    Format : AC-3
    Format/Info : Audio Coding 3
    Mode extension : CM (complete main)
    Format settings, Endianness : Big
    Codec ID : A_AC3
    Duration : 1 h 41 min
    Bit rate mode : Constant
    Bit rate : 640 kb/s
    Channel(s) : 6 channels
    Channel positions : Front: L C R, Side: L R, LFE
    Sampling rate : 48.0 kHz
    Frame rate : 31.250 FPS (1536 spf)
    Compression mode : Lossy
    Stream size : 465 MiB (11%)
    Language : English
    Default : No
    Forced : No

    Text #1
    ID : 5
    Format : UTF-8
    Codec ID : S_TEXT/UTF8
    Codec ID/Info : UTF-8 Plain Text
    Title : Full (Лицензия)
    Language : Russian
    Default : No
    Forced : No

    Text #2
    ID : 6
    Format : UTF-8
    Codec ID : S_TEXT/UTF8
    Codec ID/Info : UTF-8 Plain Text
    Title : Full
    Language : English
    Default : No
    Forced : No

    Text #3
    ID : 7
    Format : UTF-8
    Codec ID : S_TEXT/UTF8
    Codec ID/Info : UTF-8 Plain Text
    Title : SDH
    Language : English
    Default : No
    Forced : No

    Menu
    00:00:00.000 : en:Chapter 1
    00:02:56.509 : en:Chapter 2
    00:07:10.638 : en:Chapter 3
    00:12:08.894 : en:Chapter 4
    00:17:19.955 : en:Chapter 5
    00:21:40.799 : en:Chapter 6
    00:25:58.390 : en:Chapter 7
    00:32:11.554 : en:Chapter 8
    00:36:58.049 : en:Chapter 9
    00:42:33.509 : en:Chapter 10
    00:47:48.657 : en:Chapter 11
    00:50:47.669 : en:Chapter 12
    00:56:48.947 : en:Chapter 13
    01:02:56.314 : en:Chapter 14
    01:08:28.270 : en:Chapter 15
    01:12:40.606 : en:Chapter 16
    01:20:00.629 : en:Chapter 17
    01:24:22.265 : en:Chapter 18
    01:28:46.070 : en:Chapter 19
    01:32:49.564 : en:Chapter 20
8.4 из 10
голосов: 7
foster720p 3-05-2017, 01:52
Информация
Посетители, находящиеся в группе Гости, не могут оставлять комментарии к данной публикации.