Панель пользователя
Регистрация

Воспользуйтесь социальными сетями для входа на https://freerutor.com

vk odnoklassniki facebook mailru yandex google
Рекомендуем
Document
Счетчик
Голосуй за нас
Популярное
загрузка...
Товары интернет магазина
загрузка...

Уиджи. Проклятие доски дьявола (2016) BDRip 720p | Лицензия

Уиджи. Проклятие доски дьявола (2016) BDRip 720p | Лицензия
Участники торрент обмена
Сидов Пиров Скачали
2 0 279
Характеристика
Размер Файлы
5.69 GB
Релиз группа
Поделиться раздачей
Фильмы (720,1080,Blu-Ray)
Наименование: Уиджи. Проклятие доски дьявола
Оригинальное наименование: Ouija: Origin of Evil
Категория: Ужасы, триллер
Произведено: США / Allspark Pictures, Platinum Dunes, Hasbro Inc., Intrepid Pictures, Blumhouse Productions
Режиссер постановщик: Майк Флэнеган
В главных ролях: Анналиса Бассо, Элизабет Ризер, Лулу Уилсон, Генри Томас, Паркер Мак, Холли Чарлтон, Даг Джонс, Кейт Сигел, Сэм Андерсон
Краткое описание: Спиритическая доска Уиджи никогда не была просто игрой. Она служила порталом в мир мертвых. Столетиями она служила вратами между миром живых и царством мертвых. Но однажды духи выйдут из-под контроля, и первородное зло овладеет душой ребенка...
  • Видео данные: MPEG-4 AVC, 5500 Кбит/с, 1280x692
    Аудио данные: Русский (DTS, 6 ch, 768 Кбит/с), (AC3, 6 ch, 448 Кбит/с), английский (DTS, 6 ch, 1510 Кбит/с)
    Перевод: Дублированный (Лицензия)
    Субтитры: Русские, английские
    Продолжительность: 01:38:54
  • Уиджи. Проклятие доски дьявола (2016) BDRip 720p | Лицензия Уиджи. Проклятие доски дьявола (2016) BDRip 720p | Лицензия Уиджи. Проклятие доски дьявола (2016) BDRip 720p | Лицензия
  • General
    Unique ID : 242529628806715148980241894610824344449 (0xB67581E85FC51037AD1A7AE189943381)
    Complete name : F:\Video\Ouija.Origin.of.Evil.2016.D.BDRip.720p.ExKinoRay.mkv
    Format : Matroska
    Format version : Version 4 / Version 2
    File size : 5.69 GiB
    Duration : 1 h 38 min
    Overall bit rate : 8 228 kb/s
    Encoded date : UTC 2017-02-10 12:01:36
    Writing application : mkvmerge v8.3.0 ('Over the Horizon') 64bit
    Writing library : libebml v1.3.1 + libmatroska v1.4.2
    Cover : Yes
    Attachments : cover.jpg

    Video
    ID : 1
    Format : AVC
    Format/Info : Advanced Video Codec
    Format profile : High@L4.1
    Format settings, CABAC : Yes
    Format settings, ReFrames : 9 frames
    Codec ID : V_MPEG4/ISO/AVC
    Duration : 1 h 38 min
    Bit rate : 5 500 kb/s
    Width : 1 280 pixels
    Height : 692 pixels
    Display aspect ratio : 1.85:1
    Frame rate mode : Constant
    Frame rate : 23.976 (24000/1001) FPS
    Color space : YUV
    Chroma subsampling : 4:2:0
    Bit depth : 8 bits
    Scan type : Progressive
    Bits/(Pixel*Frame) : 0.259
    Stream size : 3.80 GiB (67%)
    Writing library : x264 core 148 r2665kMod a01e339
    Encoding settings : cabac=1 / ref=9 / deblock=1:-3:-3 / analyse=0x3:0x133 / me=umh / subme=11 / psy=1 / fade_compensate=0.00 / psy_rd=1.05:0.00 / mixed_ref=1 / me_range=32 / chroma_me=1 / trellis=2 / 8x8dct=1 / cqm=0 / deadzone=21,11 / fast_pskip=0 / chroma_qp_offset=-2 / threads=22 / lookahead_threads=3 / sliced_threads=0 / nr=0 / decimate=0 / interlaced=0 / bluray_compat=0 / constrained_intra=0 / fgo=0 / bframes=8 / b_pyramid=2 / b_adapt=2 / b_bias=0 / direct=3 / weightb=1 / open_gop=0 / weightp=2 / keyint=240 / keyint_min=24 / scenecut=40 / intra_refresh=0 / rc=2pass / mbtree=0 / bitrate=5500 / ratetol=1.0 / qcomp=0.70 / qpmin=0 / qpmax=69 / qpstep=4 / cplxblur=20.0 / qblur=0.5 / ip_ratio=1.20 / pb_ratio=1.20 / aq=3:0.85
    Language : English
    Default : Yes
    Forced : No

    Audio #1
    ID : 2
    Format : DTS
    Format/Info : Digital Theater Systems
    Mode : 16
    Format settings, Endianness : Big
    Codec ID : A_DTS
    Duration : 1 h 38 min
    Bit rate mode : Constant
    Bit rate : 768 kb/s
    Channel(s) : 6 channels
    Channel positions : Front: L C R, Side: L R, LFE
    Sampling rate : 48.0 kHz
    Frame rate : 93.750 FPS (512 spf)
    Bit depth : 24 bits
    Compression mode : Lossy
    Stream size : 543 MiB (9%)
    Title : Dub-DTS [License]
    Language : Russian
    Default : Yes
    Forced : No

    Audio #2
    ID : 3
    Format : AC-3
    Format/Info : Audio Coding 3
    Mode extension : CM (complete main)
    Format settings, Endianness : Big
    Codec ID : A_AC3
    Duration : 1 h 38 min
    Bit rate mode : Constant
    Bit rate : 448 kb/s
    Channel(s) : 6 channels
    Channel positions : Front: L C R, Side: L R, LFE
    Sampling rate : 48.0 kHz
    Frame rate : 31.250 FPS (1536 spf)
    Bit depth : 16 bits
    Compression mode : Lossy
    Stream size : 317 MiB (5%)
    Title : Dub-AC3 [License]
    Language : Russian
    Default : No
    Forced : No

    Audio #3
    ID : 4
    Format : DTS
    Format/Info : Digital Theater Systems
    Mode : 16
    Format settings, Endianness : Big
    Codec ID : A_DTS
    Duration : 1 h 38 min
    Bit rate mode : Constant
    Bit rate : 1 509 kb/s
    Channel(s) : 6 channels
    Channel positions : Front: L C R, Side: L R, LFE
    Sampling rate : 48.0 kHz
    Frame rate : 93.750 FPS (512 spf)
    Bit depth : 24 bits
    Compression mode : Lossy
    Stream size : 1.04 GiB (18%)
    Title : Original
    Language : English
    Default : No
    Forced : No

    Text #1
    ID : 5
    Format : UTF-8
    Codec ID : S_TEXT/UTF8
    Codec ID/Info : UTF-8 Plain Text
    Duration : 1 h 38 min
    Bit rate : 0 b/s
    Count of elements : 26
    Stream size : 391 Bytes (0%)
    Title : Forced
    Language : Russian
    Default : Yes
    Forced : No

    Text #2
    ID : 6
    Format : UTF-8
    Codec ID : S_TEXT/UTF8
    Codec ID/Info : UTF-8 Plain Text
    Duration : 1 h 38 min
    Bit rate : 55 b/s
    Count of elements : 942
    Stream size : 40.4 KiB (0%)
    Title : Full
    Language : Russian
    Default : No
    Forced : No

    Text #3
    ID : 7
    Format : UTF-8
    Codec ID : S_TEXT/UTF8
    Codec ID/Info : UTF-8 Plain Text
    Duration : 1 h 38 min
    Bit rate : 39 b/s
    Count of elements : 1014
    Stream size : 28.8 KiB (0%)
    Title : Full
    Language : English
    Default : No
    Forced : No

    Menu
    00:00:00.000 : en:00:00:00.000
    00:05:30.747 : en:00:05:30.747
    00:09:12.469 : en:00:09:12.469
    00:14:19.525 : en:00:14:19.525
    00:21:37.880 : en:00:21:37.880
    00:25:24.314 : en:00:25:24.314
    00:30:09.850 : en:00:30:09.850
    00:35:53.318 : en:00:35:53.318
    00:39:04.384 : en:00:39:04.384
    00:43:53.464 : en:00:43:53.464
    00:48:49.677 : en:00:48:49.677
    00:55:11.683 : en:00:55:11.683
    00:58:47.607 : en:00:58:47.607
    01:05:27.715 : en:01:05:27.715
    01:10:46.284 : en:01:10:46.284
    01:14:26.420 : en:01:14:26.420
    01:18:25.075 : en:01:18:25.075
    01:21:48.403 : en:01:21:48.403
    01:27:42.841 : en:01:27:42.841
    01:31:03.291 : en:01:31:03.291
6.9 из 10
голосов: 12
/10
/10
foster720p 10-02-2017, 15:15
Информация
Посетители, находящиеся в группе Гости, не могут оставлять комментарии к данной публикации.