Панель пользователя
Регистрация

Воспользуйтесь социальными сетями для входа на https://freerutor.com

vk odnoklassniki facebook mailru yandex google
Рекомендуем
Document
Счетчик
Голосуй за нас
Популярное
загрузка...
Товары интернет магазина

В долине насилия (2016) BDRip 720p | Чистый звук

В долине насилия (2016) BDRip 720p | Чистый звук
Участники торрент обмена
Сидов Пиров Скачали
7 0 560
Характеристика
Размер Файлы
5.77 GB
Поделиться раздачей
Фильмы (720,1080,Blu-Ray)
Наименование: В долине насилия
Оригинальное наименование: In a Valley of Violence
Произведено: США
Категория: вестерн
Режиссер постановщик: Тай Уэст
В главных ролях: Карен Гиллан, Итан Хоук, Таисса Фармига, Джон Траволта, Берн Горман, Джеймс Рэнсон, Тоби Хасс, Ларри Фессенден, Харрисон Суини, Джампи
Краткое описание: Бродяга по имени Пол, которому нечего терять, стремится отомстить бандитам, убившим его лучшего друга.
  • Видео данные: MPEG-4 AVC, 6950 Kбит/с, 1280x536
    Аудио данные: Русский (AC3, 6 ch, 384 Кбит/с), английский (AC3, 6 ch, 640 Кбит/с)
    Перевод: Дублированный [Чистый звук]
    Субтитры: Английские
    Продолжительность: 01:43:37
    Без рекламы!
  • В долине насилия (2016) BDRip 720p | Чистый звук В долине насилия (2016) BDRip 720p | Чистый звук В долине насилия (2016) BDRip 720p | Чистый звук
  • Общее
    Уникальный идентификатор : 240537621178153277029235209249654966026 (0xB4F5DC595120F33894A5379AA006070A)
    Полное имя : D:\загрузки\In.A.Valley.Of.Violence.2016.D.BDRip.720p.mkv
    Формат : Matroska
    Версия формата : Version 2
    Размер файла : 5,77 Гбайт
    Продолжительность : 1 ч. 43 м.
    Общий поток : 7967 Кбит/сек
    Дата кодирования : UTC 2017-03-11 02:00:42
    Программа кодирования : mkvmerge v7.8.0 ('River Man') 32bit built on Apr 3 2015 12:11:22
    Библиотека кодирования : libebml v1.3.1 + libmatroska v1.4.2

    Видео
    Идентификатор : 1
    Формат : AVC
    Формат/Информация : Advanced Video Codec
    Профиль формата : High@L4.1
    Параметр CABAC формата : Да
    Параметр ReFrames формата : 12 кадров
    Идентификатор кодека : V_MPEG4/ISO/AVC
    Продолжительность : 1 ч. 43 м.
    Битрейт : 6950 Кбит/сек
    Ширина : 1280 пикселей
    Высота : 536 пикселей
    Соотношение сторон : 2,40:1
    Режим частоты кадров : Постоянный
    Частота кадров : 23,976 (24000/1001) кадра/сек
    Цветовое пространство : YUV
    Субдискретизация насыщенности : 4:2:0
    Битовая глубина : 8 бит
    Тип развёртки : Прогрессивная
    Бит/(Пиксели*Кадры) : 0.423
    Размер потока : 4,91 Гбайт (85%)
    Библиотека кодирования : x264 core 142 r2431+42 c69a006 tMod [8-bit@all X86_64]
    Настройки программы : cabac=1 / ref=12 / deblock=1:-3:-3 / analyse=0x3:0x113 / me=umh / subme=11 / psy=1 / fade_compensate=0.00 / psy_rd=1.05:1.05 / mixed_ref=1 / me_range=48 / chroma_me=1 / trellis=2 / 8x8dct=1 / cqm=0 / deadzone=21,11 / fast_pskip=0 / chroma_qp_offset=-4 / threads=16 / lookahead_threads=2 / sliced_threads=0 / nr=0 / decimate=0 / interlaced=0 / bluray_compat=0 / constrained_intra=0 / fgo=0 / bframes=8 / b_pyramid=2 / b_adapt=2 / b_bias=0 / direct=3 / weightb=1 / open_gop=0 / weightp=2 / keyint=240 / keyint_min=23 / scenecut=40 / intra_refresh=0 / rc_lookahead=100 / rc=2pass / mbtree=0 / bitrate=6950 / ratetol=1.0 / qcomp=0.70 / qpmin=0:0:0 / qpmax=69:69:69 / qpstep=4 / cplxblur=20.0 / qblur=0.5 / vbv_maxrate=62500 / vbv_bufsize=78125 / nal_hrd=none / filler=0 / ip_ratio=1.30 / pb_ratio=1.20 / aq=2:0.70 / aq-sensitivity=10.00 / aq-factor=1.00:1.00:1.00 / aq2=0 / aq3=0
    Язык : English
    Default : Да
    Forced : Нет
    Цветовой диапазон : Limited
    Основные цвета : BT.709
    Характеристики трансфера : BT.709
    Коэффициенты матрицы : BT.709

    Аудио #1
    Идентификатор : 2
    Формат : AC-3
    Формат/Информация : Audio Coding 3
    Расширение режима : CM (complete main)
    Параметр Endianness формата : Big
    Идентификатор кодека : A_AC3
    Продолжительность : 1 ч. 43 м.
    Вид битрейта : Постоянный
    Битрейт : 384 Кбит/сек
    Каналы : 6 каналов
    Расположение каналов : Front: L C R, Side: L R, LFE
    Частота : 48,0 КГц
    Частота кадров : 31,250 кадров/сек (1536 spf)
    Битовая глубина : 16 бит
    Метод сжатия : С потерями
    Размер потока : 285 Мбайт (5%)
    Язык : Russian
    Default : Да
    Forced : Нет

    Аудио #2
    Идентификатор : 3
    Формат : AC-3
    Формат/Информация : Audio Coding 3
    Расширение режима : CM (complete main)
    Параметр Endianness формата : Big
    Идентификатор кодека : A_AC3
    Продолжительность : 1 ч. 43 м.
    Вид битрейта : Постоянный
    Битрейт : 640 Кбит/сек
    Каналы : 6 каналов
    Расположение каналов : Front: L C R, Side: L R, LFE
    Частота : 48,0 КГц
    Частота кадров : 31,250 кадров/сек (1536 spf)
    Битовая глубина : 16 бит
    Метод сжатия : С потерями
    Размер потока : 474 Мбайт (8%)
    Язык : English
    Default : Нет
    Forced : Нет

    Текст
    Идентификатор : 4
    Формат : UTF-8
    Идентификатор кодека : S_TEXT/UTF8
    Идентификатор кодека/Информация : UTF-8 Plain Text
    Язык : English
    Default : Нет
    Forced : Нет

    Меню
    00:00:00.000 : en:Chapter 01
    00:08:12.533 : en:Chapter 02
    00:12:10.604 : en:Chapter 03
    00:18:04.374 : en:Chapter 04
    00:23:38.625 : en:Chapter 05
    00:26:42.475 : en:Chapter 06
    00:31:03.278 : en:Chapter 07
    00:36:37.820 : en:Chapter 08
    00:41:27.485 : en:Chapter 09
    00:50:31.987 : en:Chapter 10
    00:56:27.050 : en:Chapter 11
    01:01:45.535 : en:Chapter 12
    01:05:32.261 : en:Chapter 13
    01:08:18.135 : en:Chapter 14
    01:12:24.423 : en:Chapter 15
    01:16:22.744 : en:Chapter 16
    01:20:23.026 : en:Chapter 17
    01:25:15.527 : en:Chapter 18
    01:33:04.412 : en:Chapter 19
    01:39:17.576 : en:Chapter 20
8.0 из 10
голосов: 5
/10
/10
foster720p 11-03-2017, 05:08
Информация
Посетители, находящиеся в группе Гости, не могут оставлять комментарии к данной публикации.