Панель пользователя
Регистрация

Воспользуйтесь социальными сетями для входа на https://freerutor.com

vk odnoklassniki facebook mailru yandex google
Рекомендуем
Document
Счетчик
Голосуй за нас
Товары интернет магазина

Она (2016) BDRip 720p | iTunes

Она (2016) BDRip 720p |  iTunes
Участники торрент обмена
Сидов Пиров Скачали
32 1 2273
Характеристика
Размер Файлы
6.29 GB
Поделиться раздачей
Фильмы (720,1080,Blu-Ray)
Наименование: Она
Оригинальное наименование: Elle
Произведено: Франция, Германия, Бельгия
Категория: триллер, драма
Режиссер постановщик: Пол Верховен
В главных ролях: Изабель Юппер, Лоран Лафитт, Анн Косиньи, Шарль Берлинг, Виржини Эфира, Жюдит Магр, Кристиан Беркель, Йонас Блоке, Алис Исааз, Вимала Понс
Краткое описание: Мишель, состоятельная парижанка, владелица крупной компании по разработке видеоигр, с мужем в разводе, у сына своя, взрослая, жизнь. А у Мишель необременительный роман с мужем подруги. Однажды в ее дом врывается мужчина в черном, жестоко избивает ее и насилует. Когда он исчезает, Мишель не заявляет в полицию. Страшная история пробуждает в ней детские психологические травмы и скрытые инстинкты, связанные с ее отцом, серийным убийцей. С этого момента она в каждом мужчине из своего окружения начинает видеть насильника. Она хочет найти его, но вовсе не для того, чтобы сдать полиции...
  • Видео данные: MPEG-4 AVC, 5858 Кбит/с, 1280x534, 24.000 кадр/с
    Аудио данные: Русский (AC3, 6 ch, 384 Кбит/с), французский (AC3, 6 ch, 640 Кбит/с)
    Перевод: Дублированный (iTunes)
    Субтитры: Французские, английские
    Продолжительность: 02:10:44
  • Она (2016) BDRip 720p |  iTunes Она (2016) BDRip 720p |  iTunes Она (2016) BDRip 720p |  iTunes
  • Общее
    Уникальный идентификатор : 243327205335157342434601470515669170097 (0xB70F1D77730FCB52B5CE0523139CF7B1)
    Полное имя : D:\загрузки\Elle.2016.D.BDRip.720p.mkv
    Формат : Matroska
    Версия формата : Version 2
    Размер файла : 6,29 Гбайт
    Продолжительность : 2 ч. 10 м.
    Общий поток : 6884 Кбит/сек
    Дата кодирования : UTC 2017-03-13 21:37:49
    Программа кодирования : mkvmerge v7.8.0 ('River Man') 32bit built on Apr 3 2015 12:11:22
    Библиотека кодирования : libebml v1.3.1 + libmatroska v1.4.2

    Видео
    Идентификатор : 1
    Формат : AVC
    Формат/Информация : Advanced Video Codec
    Профиль формата : High@L4.1
    Параметр CABAC формата : Да
    Параметр ReFrames формата : 12 кадров
    Идентификатор кодека : V_MPEG4/ISO/AVC
    Продолжительность : 2 ч. 10 м.
    Битрейт : 5723 Кбит/сек
    Ширина : 1280 пикселей
    Высота : 534 пикселя
    Соотношение сторон : 2,40:1
    Режим частоты кадров : Постоянный
    Частота кадров : 24,000 кадра/сек
    Цветовое пространство : YUV
    Субдискретизация насыщенности : 4:2:0
    Битовая глубина : 8 бит
    Тип развёртки : Прогрессивная
    Бит/(Пиксели*Кадры) : 0.349
    Размер потока : 5,23 Гбайт (83%)
    Заголовок : Elle.2016.720p.BluRay.DTS.x264-VietHD
    Библиотека кодирования : x264 core 148 r2721kMod 72d53ab
    Настройки программы : cabac=1 / ref=12 / deblock=1:-3:-3 / analyse=0x3:0x133 / me=umh / subme=10 / psy=1 / fade_compensate=0.00 / psy_rd=1.00:0.00 / mixed_ref=1 / me_range=24 / chroma_me=1 / trellis=2 / 8x8dct=1 / cqm=0 / deadzone=21,11 / fast_pskip=0 / chroma_qp_offset=-2 / threads=56 / lookahead_threads=4 / sliced_threads=0 / nr=0 / decimate=0 / interlaced=0 / bluray_compat=0 / constrained_intra=0 / fgo=0 / bframes=9 / b_pyramid=2 / b_adapt=2 / b_bias=0 / direct=3 / weightb=1 / open_gop=0 / weightp=2 / keyint=250 / keyint_min=24 / scenecut=40 / intra_refresh=0 / rc_lookahead=60 / rc=crf / mbtree=0 / crf=16.0000 / qcomp=0.60 / qpmin=0 / qpmax=69 / qpstep=4 / vbv_maxrate=62500 / vbv_bufsize=78125 / crf_max=0.0 / nal_hrd=none / filler=0 / ip_ratio=1.30 / pb_ratio=1.20 / aq=3:0.75
    Язык : French
    Default : Да
    Forced : Да
    Цветовой диапазон : Limited
    Коэффициенты матрицы : BT.709

    Аудио #1
    Идентификатор : 2
    Формат : AC-3
    Формат/Информация : Audio Coding 3
    Расширение режима : CM (complete main)
    Параметр Endianness формата : Big
    Идентификатор кодека : A_AC3
    Продолжительность : 2 ч. 10 м.
    Вид битрейта : Постоянный
    Битрейт : 384 Кбит/сек
    Каналы : 6 каналов
    Расположение каналов : Front: L C R, Side: L R, LFE
    Частота : 48,0 КГц
    Частота кадров : 31,250 кадров/сек (1536 spf)
    Битовая глубина : 16 бит
    Метод сжатия : С потерями
    Размер потока : 359 Мбайт (6%)
    Язык : Russian
    Default : Да
    Forced : Нет

    Аудио #2
    Идентификатор : 3
    Формат : AC-3
    Формат/Информация : Audio Coding 3
    Расширение режима : CM (complete main)
    Параметр Endianness формата : Big
    Идентификатор кодека : A_AC3
    Продолжительность : 2 ч. 10 м.
    Вид битрейта : Постоянный
    Битрейт : 640 Кбит/сек
    Каналы : 6 каналов
    Расположение каналов : Front: L C R, Side: L R, LFE
    Частота : 48,0 КГц
    Частота кадров : 31,250 кадров/сек (1536 spf)
    Битовая глубина : 16 бит
    Метод сжатия : С потерями
    Размер потока : 599 Мбайт (9%)
    Язык : French
    Default : Нет
    Forced : Нет

    Текст #1
    Идентификатор : 4
    Формат : UTF-8
    Идентификатор кодека : S_TEXT/UTF8
    Идентификатор кодека/Информация : UTF-8 Plain Text
    Язык : French
    Default : Нет
    Forced : Нет

    Текст #2
    Идентификатор : 5
    Формат : UTF-8
    Идентификатор кодека : S_TEXT/UTF8
    Идентификатор кодека/Информация : UTF-8 Plain Text
    Язык : English
    Default : Нет
    Forced : Нет

    Меню
    00:00:00.000 : fr:00:00:00.000
    00:13:58.250 : fr:00:13:58.250
    00:22:22.917 : fr:00:22:22.917
    00:31:58.167 : fr:00:31:58.167
    00:42:11.667 : fr:00:42:11.667
    00:51:55.292 : fr:00:51:55.292
    01:01:11.000 : fr:01:01:11.000
    01:12:58.125 : fr:01:12:58.125
    01:25:19.708 : fr:01:25:19.708
    01:36:16.583 : fr:01:36:16.583
    01:45:27.417 : fr:01:45:27.417
    02:00:35.000 : fr:02:00:35.000

9.0 из 10
голосов: 6
foster720p 14-03-2017, 00:44

foster720p | 10-10-2016, 21:27 | Статус: Онлайн

Ссылка на скачивание http://freerutor.org/engine/download.php?id=215681

zet709 | 4-10-2016, 20:55 | Статус: Оффлайн

Во, респект, наконец то, дождался, Изабель Юппер - обожаю )
Информация
Посетители, находящиеся в группе Гости, не могут оставлять комментарии к данной публикации.